  0
SECTION
  2
HEADER
  9
$ACADVER
  1
AC1015
  9
$ACADMAINTVER
 70
    20
  9
$DWGCODEPAGE
  3
ANSI_949
  9
$INSBASE
 10
0.0
 20
0.0
 30
0.0
  9
$EXTMIN
 10
-0.0090630292066862
 20
-0.0064082024693448
 30
-0.0015258207003583
  9
$EXTMAX
 10
198.0105749170884
 20
140.007477214103
 30
0.0000000349246037
  9
$LIMMIN
 10
0.0
 20
0.0
  9
$LIMMAX
 10
297.0
 20
210.0
  9
$ORTHOMODE
 70
     1
  9
$REGENMODE
 70
     1
  9
$FILLMODE
 70
     1
  9
$QTEXTMODE
 70
     0
  9
$MIRRTEXT
 70
     1
  9
$LTSCALE
 40
1.0
  9
$ATTMODE
 70
     1
  9
$TEXTSIZE
 40
3.527777777777777
  9
$TRACEWID
 40
1.0
  9
$TEXTSTYLE
  7
STANDARD
  9
$CLAYER
  8
0
  9
$CELTYPE
  6
ByLayer
  9
$CECOLOR
 62
   256
  9
$CELTSCALE
 40
1.0
  9
$DISPSILH
 70
     0
  9
$DIMSCALE
 40
1.0
  9
$DIMASZ
 40
3.301999999999999
  9
$DIMEXO
 40
1.0
  9
$DIMDLI
 40
3.75
  9
$DIMRND
 40
0.0
  9
$DIMDLE
 40
0.0
  9
$DIMEXE
 40
1.0
  9
$DIMTP
 40
0.0
  9
$DIMTM
 40
0.0
  9
$DIMTXT
 40
3.527777777777777
  9
$DIMCEN
 40
2.5
  9
$DIMTSZ
 40
0.0
  9
$DIMTOL
 70
     0
  9
$DIMLIM
 70
     0
  9
$DIMTIH
 70
     1
  9
$DIMTOH
 70
     1
  9
$DIMSE1
 70
     0
  9
$DIMSE2
 70
     0
  9
$DIMTAD
 70
     1
  9
$DIMZIN
 70
     1
  9
$DIMBLK
  1

  9
$DIMASO
 70
     1
  9
$DIMSHO
 70
     1
  9
$DIMPOST
  1

  9
$DIMAPOST
  1

  9
$DIMALT
 70
     0
  9
$DIMALTD
 70
     3
  9
$DIMALTF
 40
0.0393700787401575
  9
$DIMLFAC
 40
1.0
  9
$DIMTOFL
 70
     1
  9
$DIMTVP
 40
0.0
  9
$DIMTIX
 70
     0
  9
$DIMSOXD
 70
     0
  9
$DIMSAH
 70
     0
  9
$DIMBLK1
  1

  9
$DIMBLK2
  1

  9
$DIMSTYLE
  2
ISO-25
  9
$DIMCLRD
 70
     0
  9
$DIMCLRE
 70
     0
  9
$DIMCLRT
 70
     0
  9
$DIMTFAC
 40
1.0
  9
$DIMGAP
 40
1.524
  9
$DIMJUST
 70
     0
  9
$DIMSD1
 70
     0
  9
$DIMSD2
 70
     0
  9
$DIMTOLJ
 70
     0
  9
$DIMTZIN
 70
     1
  9
$DIMALTZ
 70
     0
  9
$DIMALTTZ
 70
     0
  9
$DIMUPT
 70
     0
  9
$DIMDEC
 70
     1
  9
$DIMTDEC
 70
     2
  9
$DIMALTU
 70
     2
  9
$DIMALTTD
 70
     3
  9
$DIMTXSTY
  7
STANDARD
  9
$DIMAUNIT
 70
     0
  9
$DIMADEC
 70
     2
  9
$DIMALTRND
 40
0.0
  9
$DIMAZIN
 70
     0
  9
$DIMDSEP
 70
    44
  9
$DIMATFIT
 70
     3
  9
$DIMFRAC
 70
     0
  9
$DIMLDRBLK
  1

  9
$DIMLUNIT
 70
     2
  9
$DIMLWD
 70
    -2
  9
$DIMLWE
 70
    -2
  9
$DIMTMOVE
 70
     0
  9
$LUNITS
 70
     2
  9
$LUPREC
 70
     2
  9
$SKETCHINC
 40
1.0
  9
$FILLETRAD
 40
10.0
  9
$AUNITS
 70
     0
  9
$AUPREC
 70
     2
  9
$MENU
  1
.
  9
$ELEVATION
 40
0.0
  9
$PELEVATION
 40
0.0
  9
$THICKNESS
 40
0.0
  9
$LIMCHECK
 70
     0
  9
$CHAMFERA
 40
0.0
  9
$CHAMFERB
 40
0.0
  9
$CHAMFERC
 40
0.0
  9
$CHAMFERD
 40
0.0
  9
$SKPOLY
 70
     0
  9
$TDCREATE
 40
2458232.723958901
  9
$TDUCREATE
 40
2458232.348958901
  9
$TDUPDATE
 40
2458408.717022581
  9
$TDUUPDATE
 40
2458408.342022581
  9
$TDINDWG
 40
0.0004347338
  9
$TDUSRTIMER
 40
0.0004347338
  9
$USRTIMER
 70
     1
  9
$ANGBASE
 50
0.0
  9
$ANGDIR
 70
     0
  9
$PDMODE
 70
     0
  9
$PDSIZE
 40
-1.0
  9
$PLINEWID
 40
0.0
  9
$SPLFRAME
 70
     0
  9
$SPLINETYPE
 70
     6
  9
$SPLINESEGS
 70
     8
  9
$HANDSEED
  5
E7D
  9
$SURFTAB1
 70
     6
  9
$SURFTAB2
 70
     6
  9
$SURFTYPE
 70
     6
  9
$SURFU
 70
     6
  9
$SURFV
 70
     6
  9
$UCSBASE
  2

  9
$UCSNAME
  2

  9
$UCSORG
 10
0.0
 20
0.0
 30
0.0
  9
$UCSXDIR
 10
1.0
 20
0.0
 30
0.0
  9
$UCSYDIR
 10
0.0
 20
1.0
 30
0.0
  9
$UCSORTHOREF
  2

  9
$UCSORTHOVIEW
 70
     0
  9
$UCSORGTOP
 10
0.0
 20
0.0
 30
0.0
  9
$UCSORGBOTTOM
 10
0.0
 20
0.0
 30
0.0
  9
$UCSORGLEFT
 10
0.0
 20
0.0
 30
0.0
  9
$UCSORGRIGHT
 10
0.0
 20
0.0
 30
0.0
  9
$UCSORGFRONT
 10
0.0
 20
0.0
 30
0.0
  9
$UCSORGBACK
 10
0.0
 20
0.0
 30
0.0
  9
$PUCSBASE
  2

  9
$PUCSNAME
  2

  9
$PUCSORG
 10
0.0
 20
0.0
 30
0.0
  9
$PUCSXDIR
 10
1.0
 20
0.0
 30
0.0
  9
$PUCSYDIR
 10
0.0
 20
1.0
 30
0.0
  9
$PUCSORTHOREF
  2

  9
$PUCSORTHOVIEW
 70
     0
  9
$PUCSORGTOP
 10
0.0
 20
0.0
 30
0.0
  9
$PUCSORGBOTTOM
 10
0.0
 20
0.0
 30
0.0
  9
$PUCSORGLEFT
 10
0.0
 20
0.0
 30
0.0
  9
$PUCSORGRIGHT
 10
0.0
 20
0.0
 30
0.0
  9
$PUCSORGFRONT
 10
0.0
 20
0.0
 30
0.0
  9
$PUCSORGBACK
 10
0.0
 20
0.0
 30
0.0
  9
$USERI1
 70
     0
  9
$USERI2
 70
     0
  9
$USERI3
 70
     0
  9
$USERI4
 70
     0
  9
$USERI5
 70
     0
  9
$USERR1
 40
0.0
  9
$USERR2
 40
0.0
  9
$USERR3
 40
0.0
  9
$USERR4
 40
0.0
  9
$USERR5
 40
0.0
  9
$WORLDVIEW
 70
     1
  9
$SHADEDGE
 70
     3
  9
$SHADEDIF
 70
    70
  9
$TILEMODE
 70
     1
  9
$MAXACTVP
 70
    64
  9
$PINSBASE
 10
0.0
 20
0.0
 30
0.0
  9
$PLIMCHECK
 70
     0
  9
$PEXTMIN
 10
1.000000000000000E+20
 20
1.000000000000000E+20
 30
1.000000000000000E+20
  9
$PEXTMAX
 10
-1.000000000000000E+20
 20
-1.000000000000000E+20
 30
-1.000000000000000E+20
  9
$PLIMMIN
 10
0.0
 20
0.0
  9
$PLIMMAX
 10
420.0
 20
297.0
  9
$UNITMODE
 70
     0
  9
$VISRETAIN
 70
     1
  9
$PLINEGEN
 70
     0
  9
$PSLTSCALE
 70
     1
  9
$TREEDEPTH
 70
  3020
  9
$CMLSTYLE
  2
Standard
  9
$CMLJUST
 70
     0
  9
$CMLSCALE
 40
20.0
  9
$PROXYGRAPHICS
 70
     1
  9
$MEASUREMENT
 70
     1
  9
$CELWEIGHT
370
    -1
  9
$ENDCAPS
280
     0
  9
$JOINSTYLE
280
     0
  9
$LWDISPLAY
290
     1
  9
$INSUNITS
 70
     4
  9
$HYPERLINKBASE
  1

  9
$STYLESHEET
  1

  9
$XEDIT
290
     1
  9
$CEPSNTYPE
380
     0
  9
$PSTYLEMODE
290
     1
  9
$FINGERPRINTGUID
  2
{099AD0BC-0A42-45AC-8E8B-4756705A87C4}
  9
$VERSIONGUID
  2
{9D40A487-1E56-45A7-A148-1C81B3AD72F5}
  9
$EXTNAMES
290
     1
  9
$PSVPSCALE
 40
0.0
  9
$OLESTARTUP
290
     0
  0
ENDSEC
  0
SECTION
  2
CLASSES
  0
CLASS
  1
ACDBDICTIONARYWDFLT
  2
AcDbDictionaryWithDefault
  3
ObjectDBX Classes
 90
        0
280
     0
281
     0
  0
CLASS
  1
VISUALSTYLE
  2
AcDbVisualStyle
  3
ObjectDBX Classes
 90
     4095
280
     0
281
     0
  0
CLASS
  1
MATERIAL
  2
AcDbMaterial
  3
ObjectDBX Classes
 90
     1153
280
     0
281
     0
  0
CLASS
  1
SCALE
  2
AcDbScale
  3
ObjectDBX Classes
 90
     1153
280
     0
281
     0
  0
CLASS
  1
TABLESTYLE
  2
AcDbTableStyle
  3
ObjectDBX Classes
 90
     4095
280
     0
281
     0
  0
CLASS
  1
MLEADERSTYLE
  2
AcDbMLeaderStyle
  3
ACDB_MLEADERSTYLE_CLASS
 90
     4095
280
     0
281
     0
  0
CLASS
  1
SUN
  2
AcDbSun
  3
SCENEOE
 90
     1153
280
     0
281
     0
  0
CLASS
  1
ACDBPLACEHOLDER
  2
AcDbPlaceHolder
  3
ObjectDBX Classes
 90
        0
280
     0
281
     0
  0
CLASS
  1
LAYOUT
  2
AcDbLayout
  3
ObjectDBX Classes
 90
        0
280
     0
281
     0
  0
CLASS
  1
DIMASSOC
  2
AcDbDimAssoc
  3
"AcDbDimAssoc|Product Desc:     AcDim ARX App For Dimension|Company:          Autodesk, Inc.|WEB Address:      www.autodesk.com"
 90
        0
280
     0
281
     0
  0
CLASS
  1
MULTILEADER
  2
AcDbMLeader
  3
ACDB_MLEADER_CLASS
 90
     1025
280
     0
281
     1
  0
CLASS
  1
SORTENTSTABLE
  2
AcDbSortentsTable
  3
ObjectDBX Classes
 90
        0
280
     0
281
     0
  0
CLASS
  1
DICTIONARYVAR
  2
AcDbDictionaryVar
  3
ObjectDBX Classes
 90
        0
280
     0
281
     0
  0
CLASS
  1
CELLSTYLEMAP
  2
AcDbCellStyleMap
  3
ObjectDBX Classes
 90
     1152
280
     0
281
     0
  0
ENDSEC
  0
SECTION
  2
TABLES
  0
TABLE
  2
VPORT
  5
8
330
0
100
AcDbSymbolTable
 70
     1
  0
VPORT
  5
29
330
8
100
AcDbSymbolTableRecord
100
AcDbViewportTableRecord
  2
*Active
 70
     0
 10
0.0
 20
0.0
 11
1.0
 21
1.0
 12
99.00075594394088
 22
70.00053450581683
 13
0.0
 23
0.0
 14
10.0
 24
10.0
 15
10.0
 25
10.0
 16
0.0
 26
0.0
 36
1.0
 17
0.0
 27
0.0
 37
0.0
 40
141.1354919753166
 41
2.151069518716577
 42
50.0
 43
0.0
 44
0.0
 50
0.0
 51
0.0
 71
     0
 72
  2000
 73
     1
 74
     3
 75
     0
 76
     0
 77
     0
 78
     0
281
     0
 65
     1
110
0.0
120
0.0
130
0.0
111
1.0
121
0.0
131
0.0
112
0.0
122
1.0
132
0.0
 79
     0
146
0.0
1001
ACAD_NAV_VCDISPLAY
1070
     3
  0
ENDTAB
  0
TABLE
  2
LTYPE
  5
5
330
0
100
AcDbSymbolTable
 70
     6
  0
LTYPE
  5
14
330
5
100
AcDbSymbolTableRecord
100
AcDbLinetypeTableRecord
  2
ByBlock
 70
     0
  3

 72
    65
 73
     0
 40
0.0
  0
LTYPE
  5
15
330
5
100
AcDbSymbolTableRecord
100
AcDbLinetypeTableRecord
  2
ByLayer
 70
     0
  3

 72
    65
 73
     0
 40
0.0
  0
LTYPE
  5
16
330
5
100
AcDbSymbolTableRecord
100
AcDbLinetypeTableRecord
  2
Continuous
 70
     0
  3
Solid line
 72
    65
 73
     0
 40
0.0
  0
LTYPE
  5
6E
330
5
100
AcDbSymbolTableRecord
100
AcDbLinetypeTableRecord
  2
HIDDEN
 70
     0
  3
Hidden __ __ __ __ __ __ __ __ __ __ __ __ __ __
 72
    65
 73
     2
 40
1.905
 49
1.27
 74
     0
 49
-0.635
 74
     0
  0
LTYPE
  5
6F
330
5
100
AcDbSymbolTableRecord
100
AcDbLinetypeTableRecord
  2
PHANTOM
 70
     0
  3
Phantom ______  __  __  ______  __  __  ______
 72
    65
 73
     6
 40
12.7
 49
6.349999999999999
 74
     0
 49
-1.27
 74
     0
 49
1.27
 74
     0
 49
-1.27
 74
     0
 49
1.27
 74
     0
 49
-1.27
 74
     0
  0
LTYPE
  5
70
330
5
100
AcDbSymbolTableRecord
100
AcDbLinetypeTableRecord
  2
CENTER
 70
     0
  3
Center ____ _ ____ _ ____ _ ____ _ ____ _ ____
 72
    65
 73
     4
 40
10.16
 49
6.349999999999999
 74
     0
 49
-1.27
 74
     0
 49
1.27
 74
     0
 49
-1.27
 74
     0
  0
LTYPE
  5
71
330
5
100
AcDbSymbolTableRecord
100
AcDbLinetypeTableRecord
  2
CENTERX2
 70
     0
  3
Center (2x) ________  __  ________  __  _____
 72
    65
 73
     4
 40
20.32
 49
12.7
 74
     0
 49
-2.54
 74
     0
 49
2.54
 74
     0
 49
-2.54
 74
     0
  0
LTYPE
  5
72
330
5
100
AcDbSymbolTableRecord
100
AcDbLinetypeTableRecord
  2
DOT2
 70
     0
  3
Dot (.5x) ........................................
 72
    65
 73
     2
 40
0.635
 49
0.0
 74
     0
 49
-0.635
 74
     0
  0
ENDTAB
  0
TABLE
  2
LAYER
  5
2
102
{ACAD_XDICTIONARY
360
A09
102
}
330
0
100
AcDbSymbolTable
 70
    10
  0
LAYER
  5
10
102
{ACAD_XDICTIONARY
360
DCD
102
}
330
2
100
AcDbSymbolTableRecord
100
AcDbLayerTableRecord
  2
0
 70
     0
 62
     7
  6
Continuous
370
    -3
390
F
  0
LAYER
  5
73
102
{ACAD_XDICTIONARY
360
DCF
102
}
330
2
100
AcDbSymbolTableRecord
100
AcDbLayerTableRecord
  2
SLD-0
 70
     0
 62
     7
  6
Continuous
370
    -1
390
F
  0
LAYER
  5
74
102
{ACAD_XDICTIONARY
360
DD1
102
}
330
2
100
AcDbSymbolTableRecord
100
AcDbLayerTableRecord
  2
LOGO
 70
     0
 62
   100
  6
Continuous
370
    -3
390
F
  0
LAYER
  5
75
102
{ACAD_XDICTIONARY
360
DD3
102
}
330
2
100
AcDbSymbolTableRecord
100
AcDbLayerTableRecord
  2
TEXT
 70
     0
 62
   102
  6
Continuous
370
    -3
390
F
  0
LAYER
  5
76
102
{ACAD_XDICTIONARY
360
DD5
102
}
330
2
100
AcDbSymbolTableRecord
100
AcDbLayerTableRecord
  2
DIM
 70
     0
 62
     6
  6
Continuous
370
    -3
390
F
  0
LAYER
  5
77
102
{ACAD_XDICTIONARY
360
DD7
102
}
330
2
100
AcDbSymbolTableRecord
100
AcDbLayerTableRecord
  2
CEN
 70
     0
 62
   150
  6
CENTERX2
370
    -3
390
F
  0
LAYER
  5
78
102
{ACAD_XDICTIONARY
360
DD9
102
}
330
2
100
AcDbSymbolTableRecord
100
AcDbLayerTableRecord
  2
TEXT_1
 70
     0
 62
   150
  6
Continuous
370
    -3
390
F
  0
LAYER
  5
79
102
{ACAD_XDICTIONARY
360
DDB
102
}
330
2
100
AcDbSymbolTableRecord
100
AcDbLayerTableRecord
  2
TEXT_2
 70
     0
 62
    96
  6
Continuous
370
    -3
390
F
  0
LAYER
  5
7A
102
{ACAD_XDICTIONARY
360
DDD
102
}
330
2
100
AcDbSymbolTableRecord
100
AcDbLayerTableRecord
  2
REV
 70
     0
 62
     1
  6
Continuous
370
    -3
390
F
  0
LAYER
  5
9FD
330
2
100
AcDbSymbolTableRecord
100
AcDbLayerTableRecord
  2
Defpoints
 70
     0
 62
     7
  6
Continuous
290
     0
370
    -3
390
F
  0
ENDTAB
  0
TABLE
  2
STYLE
  5
3
330
0
100
AcDbSymbolTable
 70
     5
  0
STYLE
  5
11
330
3
100
AcDbSymbolTableRecord
100
AcDbTextStyleTableRecord
  2
STANDARD
 70
     0
 40
0.0
 41
1.0
 50
0.0
 71
     0
 42
3.527777777777777
  3
MALGUN.TTF
  4

1001
ACAD
1000
맑은 고딕
1071
    33074
  0
STYLE
  5
128
330
3
100
AcDbSymbolTableRecord
100
AcDbTextStyleTableRecord
  2
SLDTEXTSTYLE0
 70
     0
 40
0.0
 41
1.0
 50
0.0
 71
     0
 42
3.527777777777777
  3
MALGUN.TTF
  4

1001
ACAD
1000
맑은 고딕
1071
      306
  0
STYLE
  5
158
330
3
100
AcDbSymbolTableRecord
100
AcDbTextStyleTableRecord
  2
SLDTEXTSTYLE1
 70
     0
 40
0.0
 41
1.0
 50
0.0
 71
     0
 42
3.527777777777777
  3
MALGUN.TTF
  4
bigfont
1001
ACAD
1000
맑은 고딕
1071
      306
  0
STYLE
  5
9FE
330
3
100
AcDbSymbolTableRecord
100
AcDbTextStyleTableRecord
  2
USER2
 70
     0
 40
0.0
 41
1.0
 50
0.0
 71
     0
 42
10.98784990526314
  3
SIMPLEX.SHX
  4

  0
STYLE
  5
9FF
330
3
100
AcDbSymbolTableRecord
100
AcDbTextStyleTableRecord
  2
STYLE2
 70
     0
 40
0.0
 41
1.0
 50
0.0
 71
     0
 42
0.2
  3

  4

1001
ACAD
1000
Gulim
1071
    33074
  0
ENDTAB
  0
TABLE
  2
VIEW
  5
6
330
0
100
AcDbSymbolTable
 70
     0
  0
ENDTAB
  0
TABLE
  2
UCS
  5
7
330
0
100
AcDbSymbolTable
 70
     0
  0
ENDTAB
  0
TABLE
  2
APPID
  5
9
330
0
100
AcDbSymbolTable
 70
     8
  0
APPID
  5
12
330
9
100
AcDbSymbolTableRecord
100
AcDbRegAppTableRecord
  2
ACAD
 70
     0
  0
APPID
  5
A02
330
9
100
AcDbSymbolTableRecord
100
AcDbRegAppTableRecord
  2
ACAD_PSEXT
 70
     0
  0
APPID
  5
A03
330
9
100
AcDbSymbolTableRecord
100
AcDbRegAppTableRecord
  2
ACAD_DSTYLE_DIMJAG
 70
     0
  0
APPID
  5
A04
330
9
100
AcDbSymbolTableRecord
100
AcDbRegAppTableRecord
  2
ACAD_DSTYLE_DIMTALN
 70
     0
  0
APPID
  5
A05
330
9
100
AcDbSymbolTableRecord
100
AcDbRegAppTableRecord
  2
ACAD_NAV_VCDISPLAY
 70
     0
  0
APPID
  5
A06
330
9
100
AcDbSymbolTableRecord
100
AcDbRegAppTableRecord
  2
ACAD_DSTYLE_DIMBREAK
 70
     0
  0
APPID
  5
A07
330
9
100
AcDbSymbolTableRecord
100
AcDbRegAppTableRecord
  2
PLOTTRANSPARENCY
 70
     0
  0
APPID
  5
E7C
330
9
100
AcDbSymbolTableRecord
100
AcDbRegAppTableRecord
  2
ACAD_MLEADERVER
 70
     0
  0
ENDTAB
  0
TABLE
  2
DIMSTYLE
  5
A
330
0
100
AcDbSymbolTable
 70
     3
100
AcDbDimStyleTable
 71
     0
  0
DIMSTYLE
105
27
330
A
100
AcDbSymbolTableRecord
100
AcDbDimStyleTableRecord
  2
ISO-25
 70
     0
 41
2.5
 42
0.625
 43
3.75
 44
1.25
 73
     0
 74
     0
 77
     1
 78
     8
140
2.5
141
2.5
143
0.03937007874016
147
0.625
171
     3
172
     1
271
     2
272
     2
274
     3
278
    44
283
     0
284
     8
340
11
  0
DIMSTYLE
105
A00
102
{ACAD_REACTORS
330
B1E
330
B21
330
B25
330
B26
330
B29
330
B2C
330
B2F
330
B30
330
B32
330
B33
330
B34
330
B37
330
C5C
330
C5F
330
C63
330
C64
330
C67
330
C6A
330
C6D
330
C6E
330
C70
330
C71
330
C72
330
C75
102
}
330
A
100
AcDbSymbolTableRecord
100
AcDbDimStyleTableRecord
  2
BASE60
 70
     0
 40
0.6
 41
2.5
 42
1.5
 43
3.75
 44
0.7
 73
     0
 74
     0
 77
     1
 78
     1
140
2.5
141
0.0
147
0.625
176
     6
177
     6
178
     3
271
     2
272
     2
340
9FE
372
    -1
1001
ACAD_DSTYLE_DIMBREAK
1070
   391
1040
3.75
1001
ACAD_DSTYLE_DIMJAG
1070
   388
1040
1.5
1001
ACAD_DSTYLE_DIMTALN
1070
   392
1070
     0
  0
DIMSTYLE
105
A01
330
A
100
AcDbSymbolTableRecord
100
AcDbDimStyleTableRecord
  2
BASE120
 70
     0
 40
1.199999999999999
 41
2.5
 42
1.5
 43
3.75
 44
0.7
 73
     0
 74
     0
 77
     1
 78
     1
140
2.5
141
0.0
147
0.625
176
     6
177
     6
178
     3
271
     2
272
     2
340
9FE
372
    -1
1001
ACAD_DSTYLE_DIMBREAK
1070
   391
1040
3.75
1001
ACAD_DSTYLE_DIMJAG
1070
   388
1040
1.5
1001
ACAD_DSTYLE_DIMTALN
1070
   392
1070
     0
  0
ENDTAB
  0
TABLE
  2
BLOCK_RECORD
  5
1
330
0
100
AcDbSymbolTable
 70
    26
  0
BLOCK_RECORD
  5
1F
330
1
100
AcDbSymbolTableRecord
100
AcDbBlockTableRecord
  2
*Model_Space
340
22
  0
BLOCK_RECORD
  5
1B
330
1
100
AcDbSymbolTableRecord
100
AcDbBlockTableRecord
  2
*Paper_Space
340
1E
  0
BLOCK_RECORD
  5
23
330
1
100
AcDbSymbolTableRecord
100
AcDbBlockTableRecord
  2
*Paper_Space0
340
26
  0
BLOCK_RECORD
  5
967
330
1
100
AcDbSymbolTableRecord
100
AcDbBlockTableRecord
  2
*D1
340
0
  0
BLOCK_RECORD
  5
973
330
1
100
AcDbSymbolTableRecord
100
AcDbBlockTableRecord
  2
*D2
340
0
  0
BLOCK_RECORD
  5
97F
330
1
100
AcDbSymbolTableRecord
100
AcDbBlockTableRecord
  2
*D3
340
0
  0
BLOCK_RECORD
  5
98C
330
1
100
AcDbSymbolTableRecord
100
AcDbBlockTableRecord
  2
*D4
340
0
  0
BLOCK_RECORD
  5
999
330
1
100
AcDbSymbolTableRecord
100
AcDbBlockTableRecord
  2
*D5
340
0
  0
BLOCK_RECORD
  5
9A6
330
1
100
AcDbSymbolTableRecord
100
AcDbBlockTableRecord
  2
*D6
340
0
  0
BLOCK_RECORD
  5
9B2
330
1
100
AcDbSymbolTableRecord
100
AcDbBlockTableRecord
  2
*D7
340
0
  0
BLOCK_RECORD
  5
9BE
330
1
100
AcDbSymbolTableRecord
100
AcDbBlockTableRecord
  2
*D8
340
0
  0
BLOCK_RECORD
  5
9CA
330
1
100
AcDbSymbolTableRecord
100
AcDbBlockTableRecord
  2
*D9
340
0
  0
BLOCK_RECORD
  5
9D7
330
1
100
AcDbSymbolTableRecord
100
AcDbBlockTableRecord
  2
*D10
340
0
  0
BLOCK_RECORD
  5
9E4
330
1
100
AcDbSymbolTableRecord
100
AcDbBlockTableRecord
  2
*D11
340
0
  0
BLOCK_RECORD
  5
9F0
330
1
100
AcDbSymbolTableRecord
100
AcDbBlockTableRecord
  2
*D12
340
0
  0
BLOCK_RECORD
  5
C82
330
1
100
AcDbSymbolTableRecord
100
AcDbBlockTableRecord
  2
*D14
340
0
  0
BLOCK_RECORD
  5
C8F
330
1
100
AcDbSymbolTableRecord
100
AcDbBlockTableRecord
  2
*D15
340
0
  0
BLOCK_RECORD
  5
C9B
330
1
100
AcDbSymbolTableRecord
100
AcDbBlockTableRecord
  2
*D16
340
0
  0
BLOCK_RECORD
  5
CA7
330
1
100
AcDbSymbolTableRecord
100
AcDbBlockTableRecord
  2
*D17
340
0
  0
BLOCK_RECORD
  5
CB4
330
1
100
AcDbSymbolTableRecord
100
AcDbBlockTableRecord
  2
*D18
340
0
  0
BLOCK_RECORD
  5
CC1
330
1
100
AcDbSymbolTableRecord
100
AcDbBlockTableRecord
  2
*D19
340
0
  0
BLOCK_RECORD
  5
CCD
330
1
100
AcDbSymbolTableRecord
100
AcDbBlockTableRecord
  2
*D20
340
0
  0
BLOCK_RECORD
  5
CDA
330
1
100
AcDbSymbolTableRecord
100
AcDbBlockTableRecord
  2
*D21
340
0
  0
BLOCK_RECORD
  5
CE6
330
1
100
AcDbSymbolTableRecord
100
AcDbBlockTableRecord
  2
*D22
340
0
  0
BLOCK_RECORD
  5
CFC
330
1
100
AcDbSymbolTableRecord
100
AcDbBlockTableRecord
  2
*D23
340
0
  0
BLOCK_RECORD
  5
D09
330
1
100
AcDbSymbolTableRecord
100
AcDbBlockTableRecord
  2
*D24
340
0
  0
BLOCK_RECORD
  5
D16
330
1
100
AcDbSymbolTableRecord
100
AcDbBlockTableRecord
  2
*D25
340
0
  0
ENDTAB
  0
ENDSEC
  0
SECTION
  2
BLOCKS
  0
BLOCK
  5
20
330
1F
100
AcDbEntity
  8
0
100
AcDbBlockBegin
  2
*Model_Space
 70
     0
 10
0.0
 20
0.0
 30
0.0
  3
*Model_Space
  1

  0
ENDBLK
  5
21
330
1F
100
AcDbEntity
  8
0
100
AcDbBlockEnd
  0
BLOCK
  5
1C
330
1B
100
AcDbEntity
 67
     1
  8
0
100
AcDbBlockBegin
  2
*Paper_Space
 70
     0
 10
0.0
 20
0.0
 30
0.0
  3
*Paper_Space
  1

  0
ENDBLK
  5
1D
330
1B
100
AcDbEntity
 67
     1
  8
0
100
AcDbBlockEnd
  0
BLOCK
  5
24
330
23
100
AcDbEntity
 67
     1
  8
0
100
AcDbBlockBegin
  2
*Paper_Space0
 70
     0
 10
0.0
 20
0.0
 30
0.0
  3
*Paper_Space0
  1

  0
ENDBLK
  5
25
330
23
100
AcDbEntity
 67
     1
  8
0
100
AcDbBlockEnd
  0
BLOCK
  5
968
330
967
100
AcDbEntity
  8
0
 62
     6
100
AcDbBlockBegin
  2
*D1
 70
     1
 10
0.0
 20
0.0
 30
0.0
  3
*D1
  1

  0
LINE
  5
969
330
967
100
AcDbEntity
  8
0
 62
     6
100
AcDbLine
 10
853.3247982526194
 20
118.514353640635
 30
0.0
 11
853.3247982526194
 21
128.4558554186598
 31
0.0
  0
LINE
  5
96A
330
967
100
AcDbEntity
  8
0
 62
     6
100
AcDbLine
 10
874.3247990274799
 20
115.5143536312011
 30
0.0
 11
874.3247990274799
 21
128.4558554186598
 31
0.0
  0
LINE
  5
96B
330
967
100
AcDbEntity
  8
0
 62
     6
370
    -2
100
AcDbLine
 10
854.8247982526195
 20
128.0358554186598
 30
0.0
 11
872.8247990274798
 21
128.0358554186598
 31
0.0
  0
SOLID
  5
96C
330
967
100
AcDbEntity
  8
0
 62
     6
100
AcDbTrace
 10
854.8247982526195
 20
128.2858554186598
 30
0.0
 11
854.8247982526195
 21
127.7858554186598
 31
0.0
 12
853.3247982526194
 22
128.0358554186598
 32
0.0
 13
853.3247982526194
 23
128.0358554186598
 33
0.0
  0
SOLID
  5
96D
330
967
100
AcDbEntity
  8
0
 62
     6
100
AcDbTrace
 10
872.8247990274798
 20
128.2858554186598
 30
0.0
 11
872.8247990274798
 21
127.7858554186598
 31
0.0
 12
874.3247990274799
 22
128.0358554186598
 32
0.0
 13
874.3247990274799
 23
128.0358554186598
 33
0.0
  0
MTEXT
  5
96E
330
967
100
AcDbEntity
  8
0
 62
     3
100
AcDbMText
 10
863.8247986400497
 20
129.1608554186598
 30
0.0
 40
1.5
 41
0.0
 71
     5
 72
     1
  1
\A1;21.00
  7
USER2
 73
     1
 44
1.0
1001
ACAD
1000
MTEXTBEGIN
1070
    73
1070
     1
1070
    44
1040
1.0
1070
    74
1070
     0
1000
MTEXTEND
  0
POINT
  5
96F
330
967
100
AcDbEntity
  8
Defpoints
 62
     0
100
AcDbPoint
 10
853.3247982526194
 20
117.614353640635
 30
0.0
  0
POINT
  5
970
330
967
100
AcDbEntity
  8
Defpoints
 62
     0
100
AcDbPoint
 10
874.3247990274799
 20
114.6143536312011
 30
0.0
  0
POINT
  5
971
330
967
100
AcDbEntity
  8
Defpoints
 62
     0
100
AcDbPoint
 10
874.3247990274799
 20
128.0358554186598
 30
0.0
  0
ENDBLK
  5
972
330
967
100
AcDbEntity
  8
0
 62
     6
100
AcDbBlockEnd
  0
BLOCK
  5
974
330
973
100
AcDbEntity
  8
0
 62
     6
100
AcDbBlockBegin
  2
*D2
 70
     1
 10
0.0
 20
0.0
 30
0.0
  3
*D2
  1

  0
LINE
  5
975
330
973
100
AcDbEntity
  8
0
 62
     6
100
AcDbLine
 10
852.4247982526196
 20
123.6143536406351
 30
0.0
 11
841.153075051714
 21
123.6143536406351
 31
0.0
  0
LINE
  5
976
330
973
100
AcDbEntity
  8
0
 62
     6
100
AcDbLine
 10
852.4247982526196
 20
111.6143536406349
 30
0.0
 11
841.153075051714
 21
111.6143536406349
 31
0.0
  0
LINE
  5
977
330
973
100
AcDbEntity
  8
0
 62
     6
370
    -2
100
AcDbLine
 10
841.5730750517141
 20
122.1143536406351
 30
0.0
 11
841.5730750517141
 21
113.1143536406349
 31
0.0
  0
SOLID
  5
978
330
973
100
AcDbEntity
  8
0
 62
     6
100
AcDbTrace
 10
841.323075051714
 20
122.1143536406351
 30
0.0
 11
841.8230750517141
 21
122.1143536406351
 31
0.0
 12
841.5730750517141
 22
123.6143536406351
 32
0.0
 13
841.5730750517141
 23
123.6143536406351
 33
0.0
  0
SOLID
  5
979
330
973
100
AcDbEntity
  8
0
 62
     6
100
AcDbTrace
 10
841.323075051714
 20
113.1143536406349
 30
0.0
 11
841.8230750517141
 21
113.1143536406349
 31
0.0
 12
841.5730750517141
 22
111.6143536406349
 32
0.0
 13
841.5730750517141
 23
111.6143536406349
 33
0.0
  0
MTEXT
  5
97A
330
973
100
AcDbEntity
  8
0
 62
     3
100
AcDbMText
 10
840.4480750517141
 20
117.6143536406351
 30
0.0
 40
1.5
 41
0.0
 71
     5
 72
     1
  1
\A1;%%C12.00
  7
USER2
 11
0.0000000000000001
 21
1.0
 31
0.0
 73
     1
 44
1.0
1001
ACAD
1000
MTEXTBEGIN
1070
    73
1070
     1
1070
    44
1040
1.0
1070
    74
1070
     0
1000
MTEXTEND
  0
POINT
  5
97B
330
973
100
AcDbEntity
  8
Defpoints
 62
     0
100
AcDbPoint
 10
853.3247982526194
 20
123.6143536406351
 30
0.0
  0
POINT
  5
97C
330
973
100
AcDbEntity
  8
Defpoints
 62
     0
100
AcDbPoint
 10
853.3247982526194
 20
111.6143536406349
 30
0.0
  0
POINT
  5
97D
330
973
100
AcDbEntity
  8
Defpoints
 62
     0
100
AcDbPoint
 10
841.5730750517141
 20
111.6143536406349
 30
0.0
  0
ENDBLK
  5
97E
330
973
100
AcDbEntity
  8
0
 62
     6
100
AcDbBlockEnd
  0
BLOCK
  5
980
330
97F
100
AcDbEntity
  8
0
 62
     6
100
AcDbBlockBegin
  2
*D3
 70
     1
 10
0.0
 20
0.0
 30
0.0
  3
*D3
  1

  0
LINE
  5
981
330
97F
100
AcDbEntity
  8
0
 62
     6
100
AcDbLine
 10
875.2247990274801
 20
119.1143536703167
 30
0.0
 11
885.3106712727438
 21
119.1143536703167
 31
0.0
  0
LINE
  5
982
330
97F
100
AcDbEntity
  8
0
 62
     6
100
AcDbLine
 10
875.2247990274799
 20
116.1143536442396
 30
0.0
 11
885.3106712727438
 21
116.1143536442396
 31
0.0
  0
LINE
  5
983
330
97F
100
AcDbEntity
  8
0
 62
     6
370
    -2
100
AcDbLine
 10
884.8906712727439
 20
120.6143536703167
 30
0.0
 11
884.8906712727439
 21
122.1143536703167
 31
0.0
  0
LINE
  5
984
330
97F
100
AcDbEntity
  8
0
 62
     6
370
    -2
100
AcDbLine
 10
884.8906712727439
 20
114.6143536442396
 30
0.0
 11
884.8906712727439
 21
109.6500679299539
 31
0.0
  0
SOLID
  5
985
330
97F
100
AcDbEntity
  8
0
 62
     6
100
AcDbTrace
 10
884.6406712727439
 20
120.6143536703167
 30
0.0
 11
885.1406712727438
 21
120.6143536703167
 31
0.0
 12
884.8906712727439
 22
119.1143536703167
 32
0.0
 13
884.8906712727439
 23
119.1143536703167
 33
0.0
  0
SOLID
  5
986
330
97F
100
AcDbEntity
  8
0
 62
     6
100
AcDbTrace
 10
884.6406712727439
 20
114.6143536442396
 30
0.0
 11
885.1406712727438
 21
114.6143536442396
 31
0.0
 12
884.8906712727439
 22
116.1143536442396
 32
0.0
 13
884.8906712727439
 23
116.1143536442396
 33
0.0
  0
MTEXT
  5
987
330
97F
100
AcDbEntity
  8
0
 62
     3
100
AcDbMText
 10
883.7656712727438
 20
111.3822107870969
 30
0.0
 40
1.5
 41
0.0
 71
     5
 72
     1
  1
\A1;M3
  7
USER2
 11
0.0000000000000001
 21
1.0
 31
0.0
 73
     1
 44
1.0
1001
ACAD
1000
MTEXTBEGIN
1070
    73
1070
     1
1070
    44
1040
1.0
1070
    74
1070
     0
1000
MTEXTEND
  0
POINT
  5
988
330
97F
100
AcDbEntity
  8
Defpoints
 62
     0
100
AcDbPoint
 10
874.3247990274801
 20
119.1143536703167
 30
0.0
  0
POINT
  5
989
330
97F
100
AcDbEntity
  8
Defpoints
 62
     0
100
AcDbPoint
 10
874.3247990274799
 20
116.1143536442396
 30
0.0
  0
POINT
  5
98A
330
97F
100
AcDbEntity
  8
Defpoints
 62
     0
100
AcDbPoint
 10
884.8906712727439
 20
116.1143536442396
 30
0.0
  0
ENDBLK
  5
98B
330
97F
100
AcDbEntity
  8
0
 62
     6
100
AcDbBlockEnd
  0
BLOCK
  5
98D
330
98C
100
AcDbEntity
  8
0
 62
     6
100
AcDbBlockBegin
  2
*D4
 70
     1
 10
0.0
 20
0.0
 30
0.0
  3
*D4
  1

  0
LINE
  5
98E
330
98C
100
AcDbEntity
  8
0
 62
     6
100
AcDbLine
 10
871.474795153178
 20
120.8643534915027
 30
0.0
 11
888.3842198772544
 21
120.8643534915027
 31
0.0
  0
LINE
  5
98F
330
98C
100
AcDbEntity
  8
0
 62
     6
100
AcDbLine
 10
871.474795153178
 20
114.3643535902229
 30
0.0
 11
888.3842198772544
 21
114.3643535902229
 31
0.0
  0
LINE
  5
990
330
98C
100
AcDbEntity
  8
0
 62
     6
370
    -2
100
AcDbLine
 10
887.9642198772543
 20
119.3643534915027
 30
0.0
 11
887.9642198772543
 21
115.8643535902229
 31
0.0
  0
LINE
  5
991
330
98C
100
AcDbEntity
  8
0
 62
     6
370
    -2
100
AcDbLine
 10
887.9642198772543
 20
114.3643535902229
 30
0.0
 11
887.9642198772543
 21
106.1857821616514
 31
0.0
  0
SOLID
  5
992
330
98C
100
AcDbEntity
  8
0
 62
     6
100
AcDbTrace
 10
887.7142198772544
 20
119.3643534915027
 30
0.0
 11
888.2142198772545
 21
119.3643534915027
 31
0.0
 12
887.9642198772543
 22
120.8643534915027
 32
0.0
 13
887.9642198772543
 23
120.8643534915027
 33
0.0
  0
SOLID
  5
993
330
98C
100
AcDbEntity
  8
0
 62
     6
100
AcDbTrace
 10
887.7142198772544
 20
115.8643535902229
 30
0.0
 11
888.2142198772545
 21
115.8643535902229
 31
0.0
 12
887.9642198772543
 22
114.3643535902229
 32
0.0
 13
887.9642198772543
 23
114.3643535902229
 33
0.0
  0
MTEXT
  5
994
330
98C
100
AcDbEntity
  8
0
 62
     3
100
AcDbMText
 10
886.8392198772545
 20
109.5250678759373
 30
0.0
 40
1.5
 41
0.0
 71
     5
 72
     1
  1
\A1;%%C6.50
  7
USER2
 11
0.0000000000000001
 21
1.0
 31
0.0
 73
     1
 44
1.0
1001
ACAD
1000
MTEXTBEGIN
1070
    73
1070
     1
1070
    44
1040
1.0
1070
    74
1070
     0
1000
MTEXTEND
  0
POINT
  5
995
330
98C
100
AcDbEntity
  8
Defpoints
 62
     0
100
AcDbPoint
 10
870.574795153178
 20
120.8643534915027
 30
0.0
  0
POINT
  5
996
330
98C
100
AcDbEntity
  8
Defpoints
 62
     0
100
AcDbPoint
 10
870.574795153178
 20
114.3643535902229
 30
0.0
  0
POINT
  5
997
330
98C
100
AcDbEntity
  8
Defpoints
 62
     0
100
AcDbPoint
 10
887.9642198772543
 20
114.3643535902229
 30
0.0
  0
ENDBLK
  5
998
330
98C
100
AcDbEntity
  8
0
 62
     6
100
AcDbBlockEnd
  0
BLOCK
  5
99A
330
999
100
AcDbEntity
  8
0
 62
     6
100
AcDbBlockBegin
  2
*D5
 70
     1
 10
0.0
 20
0.0
 30
0.0
  3
*D5
  1

  0
LINE
  5
99B
330
999
100
AcDbEntity
  8
0
 62
     6
100
AcDbLine
 10
879.824801709689
 20
118.5143536572782
 30
0.0
 11
879.824801709689
 21
128.4558554186597
 31
0.0
  0
LINE
  5
99C
330
999
100
AcDbEntity
  8
0
 62
     6
100
AcDbLine
 10
874.3247990274799
 20
115.5143536312011
 30
0.0
 11
874.3247990274799
 21
128.4558554186597
 31
0.0
  0
LINE
  5
99D
330
999
100
AcDbEntity
  8
0
 62
     6
370
    -2
100
AcDbLine
 10
875.8247990274799
 20
128.0358554186597
 30
0.0
 11
878.3248017096889
 21
128.0358554186597
 31
0.0
  0
LINE
  5
99E
330
999
100
AcDbEntity
  8
0
 62
     6
370
    -2
100
AcDbLine
 10
879.824801709689
 20
128.0358554186597
 30
0.0
 11
886.6462302811175
 21
128.0358554186597
 31
0.0
  0
SOLID
  5
99F
330
999
100
AcDbEntity
  8
0
 62
     6
100
AcDbTrace
 10
875.8247990274799
 20
128.2858554186597
 30
0.0
 11
875.8247990274799
 21
127.7858554186597
 31
0.0
 12
874.3247990274799
 22
128.0358554186597
 32
0.0
 13
874.3247990274799
 23
128.0358554186597
 33
0.0
  0
SOLID
  5
9A0
330
999
100
AcDbEntity
  8
0
 62
     6
100
AcDbTrace
 10
878.3248017096889
 20
128.2858554186597
 30
0.0
 11
878.3248017096889
 21
127.7858554186597
 31
0.0
 12
879.824801709689
 22
128.0358554186597
 32
0.0
 13
879.824801709689
 23
128.0358554186597
 33
0.0
  0
MTEXT
  5
9A1
330
999
100
AcDbEntity
  8
0
 62
     3
100
AcDbMText
 10
883.9855159954032
 20
129.1608554186597
 30
0.0
 40
1.5
 41
0.0
 71
     5
 72
     1
  1
\A1;5.50
  7
USER2
 73
     1
 44
1.0
1001
ACAD
1000
MTEXTBEGIN
1070
    73
1070
     1
1070
    44
1040
1.0
1070
    74
1070
     0
1000
MTEXTEND
  0
POINT
  5
9A2
330
999
100
AcDbEntity
  8
Defpoints
 62
     0
100
AcDbPoint
 10
879.824801709689
 20
117.6143536572782
 30
0.0
  0
POINT
  5
9A3
330
999
100
AcDbEntity
  8
Defpoints
 62
     0
100
AcDbPoint
 10
874.3247990274799
 20
114.6143536312011
 30
0.0
  0
POINT
  5
9A4
330
999
100
AcDbEntity
  8
Defpoints
 62
     0
100
AcDbPoint
 10
874.3247990274799
 20
128.0358554186597
 30
0.0
  0
ENDBLK
  5
9A5
330
999
100
AcDbEntity
  8
0
 62
     6
100
AcDbBlockEnd
  0
BLOCK
  5
9A7
330
9A6
100
AcDbEntity
  8
0
 62
     6
100
AcDbBlockBegin
  2
*D6
 70
     1
 10
0.0
 20
0.0
 30
0.0
  3
*D6
  1

  0
LINE
  5
9A8
330
9A6
100
AcDbEntity
  8
0
 62
     6
100
AcDbLine
 10
879.824801709689
 20
118.5143536572782
 30
0.0
 11
879.824801709689
 21
132.0953715977996
 31
0.0
  0
LINE
  5
9A9
330
9A6
100
AcDbEntity
  8
0
 62
     6
100
AcDbLine
 10
847.3247982526196
 20
118.514353640635
 30
0.0
 11
847.3247982526196
 21
132.0953715977996
 31
0.0
  0
LINE
  5
9AA
330
9A6
100
AcDbEntity
  8
0
 62
     6
370
    -2
100
AcDbLine
 10
878.3248017096889
 20
131.6753715977996
 30
0.0
 11
848.8247982526194
 21
131.6753715977996
 31
0.0
  0
SOLID
  5
9AB
330
9A6
100
AcDbEntity
  8
0
 62
     6
100
AcDbTrace
 10
878.3248017096889
 20
131.9253715977996
 30
0.0
 11
878.3248017096889
 21
131.4253715977996
 31
0.0
 12
879.824801709689
 22
131.6753715977996
 32
0.0
 13
879.824801709689
 23
131.6753715977996
 33
0.0
  0
SOLID
  5
9AC
330
9A6
100
AcDbEntity
  8
0
 62
     6
100
AcDbTrace
 10
848.8247982526194
 20
131.9253715977996
 30
0.0
 11
848.8247982526194
 21
131.4253715977996
 31
0.0
 12
847.3247982526196
 22
131.6753715977996
 32
0.0
 13
847.3247982526196
 23
131.6753715977996
 33
0.0
  0
MTEXT
  5
9AD
330
9A6
100
AcDbEntity
  8
0
 62
     3
100
AcDbMText
 10
863.5747999811542
 20
132.8003715977996
 30
0.0
 40
1.5
 41
0.0
 71
     5
 72
     1
  1
\A1;32.50
  7
USER2
 73
     1
 44
1.0
1001
ACAD
1000
MTEXTBEGIN
1070
    73
1070
     1
1070
    44
1040
1.0
1070
    74
1070
     0
1000
MTEXTEND
  0
POINT
  5
9AE
330
9A6
100
AcDbEntity
  8
Defpoints
 62
     0
100
AcDbPoint
 10
879.824801709689
 20
117.6143536572782
 30
0.0
  0
POINT
  5
9AF
330
9A6
100
AcDbEntity
  8
Defpoints
 62
     0
100
AcDbPoint
 10
847.3247982526196
 20
117.614353640635
 30
0.0
  0
POINT
  5
9B0
330
9A6
100
AcDbEntity
  8
Defpoints
 62
     0
100
AcDbPoint
 10
847.3247982526196
 20
131.6753715977996
 30
0.0
  0
ENDBLK
  5
9B1
330
9A6
100
AcDbEntity
  8
0
 62
     6
100
AcDbBlockEnd
  0
BLOCK
  5
9B3
330
9B2
100
AcDbEntity
  8
0
 62
     6
100
AcDbBlockBegin
  2
*D7
 70
     1
 10
0.0
 20
0.0
 30
0.0
  3
*D7
  1

  0
LINE
  5
9B4
330
9B2
100
AcDbEntity
  8
0
 62
     6
100
AcDbLine
 10
853.3247982526214
 20
76.44458542387119
 30
0.0
 11
853.3247982526214
 21
86.38608720189596
 31
0.0
  0
LINE
  5
9B5
330
9B2
100
AcDbEntity
  8
0
 62
     6
100
AcDbLine
 10
874.3247991407296
 20
73.44458514832084
 30
0.0
 11
874.3247991407296
 21
86.38608720189596
 31
0.0
  0
LINE
  5
9B6
330
9B2
100
AcDbEntity
  8
0
 62
     6
370
    -2
100
AcDbLine
 10
854.8247982526214
 20
85.96608720189596
 30
0.0
 11
872.8247991407297
 21
85.96608720189596
 31
0.0
  0
SOLID
  5
9B7
330
9B2
100
AcDbEntity
  8
0
 62
     6
100
AcDbTrace
 10
854.8247982526214
 20
86.21608720189597
 30
0.0
 11
854.8247982526214
 21
85.71608720189596
 31
0.0
 12
853.3247982526214
 22
85.96608720189596
 32
0.0
 13
853.3247982526214
 23
85.96608720189596
 33
0.0
  0
SOLID
  5
9B8
330
9B2
100
AcDbEntity
  8
0
 62
     6
100
AcDbTrace
 10
872.8247991407297
 20
86.21608720189597
 30
0.0
 11
872.8247991407297
 21
85.71608720189596
 31
0.0
 12
874.3247991407296
 22
85.96608720189596
 32
0.0
 13
874.3247991407296
 23
85.96608720189596
 33
0.0
  0
MTEXT
  5
9B9
330
9B2
100
AcDbEntity
  8
0
 62
     3
100
AcDbMText
 10
863.8247986966755
 20
87.09108720189595
 30
0.0
 40
1.5
 41
0.0
 71
     5
 72
     1
  1
\A1;21.00
  7
USER2
 73
     1
 44
1.0
1001
ACAD
1000
MTEXTBEGIN
1070
    73
1070
     1
1070
    44
1040
1.0
1070
    74
1070
     0
1000
MTEXTEND
  0
POINT
  5
9BA
330
9B2
100
AcDbEntity
  8
Defpoints
 62
     0
100
AcDbPoint
 10
853.3247982526214
 20
75.54458542387118
 30
0.0
  0
POINT
  5
9BB
330
9B2
100
AcDbEntity
  8
Defpoints
 62
     0
100
AcDbPoint
 10
874.3247991407296
 20
72.54458514832084
 30
0.0
  0
POINT
  5
9BC
330
9B2
100
AcDbEntity
  8
Defpoints
 62
     0
100
AcDbPoint
 10
874.3247991407296
 20
85.96608720189596
 30
0.0
  0
ENDBLK
  5
9BD
330
9B2
100
AcDbEntity
  8
0
 62
     6
100
AcDbBlockEnd
  0
BLOCK
  5
9BF
330
9BE
100
AcDbEntity
  8
0
 62
     6
100
AcDbBlockBegin
  2
*D8
 70
     1
 10
0.0
 20
0.0
 30
0.0
  3
*D8
  1

  0
LINE
  5
9C0
330
9BE
100
AcDbEntity
  8
0
 62
     6
100
AcDbLine
 10
852.4247982526215
 20
81.5445854238713
 30
0.0
 11
841.153075051716
 21
81.5445854238713
 31
0.0
  0
LINE
  5
9C1
330
9BE
100
AcDbEntity
  8
0
 62
     6
100
AcDbLine
 10
852.4247982526215
 20
69.54458542387105
 30
0.0
 11
841.153075051716
 21
69.54458542387105
 31
0.0
  0
LINE
  5
9C2
330
9BE
100
AcDbEntity
  8
0
 62
     6
370
    -2
100
AcDbLine
 10
841.5730750517161
 20
80.04458542387132
 30
0.0
 11
841.5730750517161
 21
71.04458542387106
 31
0.0
  0
SOLID
  5
9C3
330
9BE
100
AcDbEntity
  8
0
 62
     6
100
AcDbTrace
 10
841.3230750517159
 20
80.04458542387132
 30
0.0
 11
841.823075051716
 21
80.04458542387132
 31
0.0
 12
841.5730750517161
 22
81.5445854238713
 32
0.0
 13
841.5730750517161
 23
81.5445854238713
 33
0.0
  0
SOLID
  5
9C4
330
9BE
100
AcDbEntity
  8
0
 62
     6
100
AcDbTrace
 10
841.3230750517159
 20
71.04458542387106
 30
0.0
 11
841.823075051716
 21
71.04458542387106
 31
0.0
 12
841.5730750517161
 22
69.54458542387105
 32
0.0
 13
841.5730750517161
 23
69.54458542387105
 33
0.0
  0
MTEXT
  5
9C5
330
9BE
100
AcDbEntity
  8
0
 62
     3
100
AcDbMText
 10
840.448075051716
 20
75.54458542387131
 30
0.0
 40
1.5
 41
0.0
 71
     5
 72
     1
  1
\A1;%%C12.00
  7
USER2
 11
0.0000000000000001
 21
1.0
 31
0.0
 73
     1
 44
1.0
1001
ACAD
1000
MTEXTBEGIN
1070
    73
1070
     1
1070
    44
1040
1.0
1070
    74
1070
     0
1000
MTEXTEND
  0
POINT
  5
9C6
330
9BE
100
AcDbEntity
  8
Defpoints
 62
     0
100
AcDbPoint
 10
853.3247982526214
 20
81.5445854238713
 30
0.0
  0
POINT
  5
9C7
330
9BE
100
AcDbEntity
  8
Defpoints
 62
     0
100
AcDbPoint
 10
853.3247982526214
 20
69.54458542387105
 30
0.0
  0
POINT
  5
9C8
330
9BE
100
AcDbEntity
  8
Defpoints
 62
     0
100
AcDbPoint
 10
841.5730750517161
 20
69.54458542387105
 30
0.0
  0
ENDBLK
  5
9C9
330
9BE
100
AcDbEntity
  8
0
 62
     6
100
AcDbBlockEnd
  0
BLOCK
  5
9CB
330
9CA
100
AcDbEntity
  8
0
 62
     6
100
AcDbBlockBegin
  2
*D9
 70
     1
 10
0.0
 20
0.0
 30
0.0
  3
*D9
  1

  0
LINE
  5
9CC
330
9CA
100
AcDbEntity
  8
0
 62
     6
100
AcDbLine
 10
875.4766194516799
 20
76.79458537928883
 30
0.0
 11
884.8106712727458
 21
76.79458537928883
 31
0.0
  0
LINE
  5
9CD
330
9CA
100
AcDbEntity
  8
0
 62
     6
100
AcDbLine
 10
875.4766194516799
 20
74.29458543516819
 30
0.0
 11
884.8106712727458
 21
74.29458543516819
 31
0.0
  0
LINE
  5
9CE
330
9CA
100
AcDbEntity
  8
0
 62
     6
370
    -2
100
AcDbLine
 10
884.3906712727457
 20
78.29458537928883
 30
0.0
 11
884.3906712727457
 21
79.79458537928883
 31
0.0
  0
LINE
  5
9CF
330
9CA
100
AcDbEntity
  8
0
 62
     6
370
    -2
100
AcDbLine
 10
884.3906712727457
 20
72.79458543516819
 30
0.0
 11
884.3906712727457
 21
65.68744257802532
 31
0.0
  0
SOLID
  5
9D0
330
9CA
100
AcDbEntity
  8
0
 62
     6
100
AcDbTrace
 10
884.1406712727458
 20
78.29458537928883
 30
0.0
 11
884.6406712727459
 21
78.29458537928883
 31
0.0
 12
884.3906712727457
 22
76.79458537928883
 32
0.0
 13
884.3906712727457
 23
76.79458537928883
 33
0.0
  0
SOLID
  5
9D1
330
9CA
100
AcDbEntity
  8
0
 62
     6
100
AcDbTrace
 10
884.1406712727458
 20
72.79458543516819
 30
0.0
 11
884.6406712727459
 21
72.79458543516819
 31
0.0
 12
884.3906712727457
 22
74.29458543516819
 32
0.0
 13
884.3906712727457
 23
74.29458543516819
 33
0.0
  0
MTEXT
  5
9D2
330
9CA
100
AcDbEntity
  8
0
 62
     3
100
AcDbMText
 10
883.2656712727459
 20
68.4910140065969
 30
0.0
 40
1.5
 41
0.0
 71
     5
 72
     1
  1
\A1;M2.5
  7
USER2
 11
0.0000000000000001
 21
1.0
 31
0.0
 73
     1
 44
1.0
1001
ACAD
1000
MTEXTBEGIN
1070
    73
1070
     1
1070
    44
1040
1.0
1070
    74
1070
     0
1000
MTEXTEND
  0
POINT
  5
9D3
330
9CA
100
AcDbEntity
  8
Defpoints
 62
     0
100
AcDbPoint
 10
874.5766194516798
 20
76.79458537928883
 30
0.0
  0
POINT
  5
9D4
330
9CA
100
AcDbEntity
  8
Defpoints
 62
     0
100
AcDbPoint
 10
874.5766194516798
 20
74.29458543516819
 30
0.0
  0
POINT
  5
9D5
330
9CA
100
AcDbEntity
  8
Defpoints
 62
     0
100
AcDbPoint
 10
884.3906712727457
 20
74.29458543516819
 30
0.0
  0
ENDBLK
  5
9D6
330
9CA
100
AcDbEntity
  8
0
 62
     6
100
AcDbBlockEnd
  0
BLOCK
  5
9D8
330
9D7
100
AcDbEntity
  8
0
 62
     6
100
AcDbBlockBegin
  2
*D10
 70
     1
 10
0.0
 20
0.0
 30
0.0
  3
*D10
  1

  0
LINE
  5
9D9
330
9D7
100
AcDbEntity
  8
0
 62
     6
100
AcDbLine
 10
871.47479515318
 20
78.79458527473883
 30
0.0
 11
888.3842198772564
 21
78.79458527473883
 31
0.0
  0
LINE
  5
9DA
330
9D7
100
AcDbEntity
  8
0
 62
     6
100
AcDbLine
 10
871.47479515318
 20
72.29458537345903
 30
0.0
 11
888.3842198772564
 21
72.29458537345903
 31
0.0
  0
LINE
  5
9DB
330
9D7
100
AcDbEntity
  8
0
 62
     6
370
    -2
100
AcDbLine
 10
887.9642198772563
 20
77.29458527473884
 30
0.0
 11
887.9642198772563
 21
73.79458537345903
 31
0.0
  0
LINE
  5
9DC
330
9D7
100
AcDbEntity
  8
0
 62
     6
370
    -2
100
AcDbLine
 10
887.9642198772563
 20
72.29458537345903
 30
0.0
 11
887.9642198772563
 21
64.11601394488759
 31
0.0
  0
SOLID
  5
9DD
330
9D7
100
AcDbEntity
  8
0
 62
     6
100
AcDbTrace
 10
887.7142198772563
 20
77.29458527473884
 30
0.0
 11
888.2142198772564
 21
77.29458527473884
 31
0.0
 12
887.9642198772563
 22
78.79458527473883
 32
0.0
 13
887.9642198772563
 23
78.79458527473883
 33
0.0
  0
SOLID
  5
9DE
330
9D7
100
AcDbEntity
  8
0
 62
     6
100
AcDbTrace
 10
887.7142198772563
 20
73.79458537345903
 30
0.0
 11
888.2142198772564
 21
73.79458537345903
 31
0.0
 12
887.9642198772563
 22
72.29458537345903
 32
0.0
 13
887.9642198772563
 23
72.29458537345903
 33
0.0
  0
MTEXT
  5
9DF
330
9D7
100
AcDbEntity
  8
0
 62
     3
100
AcDbMText
 10
886.8392198772564
 20
67.45529965917345
 30
0.0
 40
1.5
 41
0.0
 71
     5
 72
     1
  1
\A1;%%C6.50
  7
USER2
 11
0.0000000000000001
 21
1.0
 31
0.0
 73
     1
 44
1.0
1001
ACAD
1000
MTEXTBEGIN
1070
    73
1070
     1
1070
    44
1040
1.0
1070
    74
1070
     0
1000
MTEXTEND
  0
POINT
  5
9E0
330
9D7
100
AcDbEntity
  8
Defpoints
 62
     0
100
AcDbPoint
 10
870.5747951531799
 20
78.79458527473883
 30
0.0
  0
POINT
  5
9E1
330
9D7
100
AcDbEntity
  8
Defpoints
 62
     0
100
AcDbPoint
 10
870.5747951531799
 20
72.29458537345903
 30
0.0
  0
POINT
  5
9E2
330
9D7
100
AcDbEntity
  8
Defpoints
 62
     0
100
AcDbPoint
 10
887.9642198772563
 20
72.29458537345903
 30
0.0
  0
ENDBLK
  5
9E3
330
9D7
100
AcDbEntity
  8
0
 62
     6
100
AcDbBlockEnd
  0
BLOCK
  5
9E5
330
9E4
100
AcDbEntity
  8
0
 62
     6
100
AcDbBlockBegin
  2
*D11
 70
     1
 10
0.0
 20
0.0
 30
0.0
  3
*D11
  1

  0
LINE
  5
9E6
330
9E4
100
AcDbEntity
  8
0
 62
     6
100
AcDbLine
 10
878.3248017096903
 20
76.44458540722857
 30
0.0
 11
878.3248017096903
 21
90.0256033810359
 31
0.0
  0
LINE
  5
9E7
330
9E4
100
AcDbEntity
  8
0
 62
     6
100
AcDbLine
 10
847.3247982526213
 20
76.44458542387119
 30
0.0
 11
847.3247982526213
 21
90.0256033810359
 31
0.0
  0
LINE
  5
9E8
330
9E4
100
AcDbEntity
  8
0
 62
     6
370
    -2
100
AcDbLine
 10
876.8248017096903
 20
89.6056033810359
 30
0.0
 11
848.8247982526214
 21
89.6056033810359
 31
0.0
  0
SOLID
  5
9E9
330
9E4
100
AcDbEntity
  8
0
 62
     6
100
AcDbTrace
 10
876.8248017096903
 20
89.8556033810359
 30
0.0
 11
876.8248017096903
 21
89.3556033810359
 31
0.0
 12
878.3248017096903
 22
89.6056033810359
 32
0.0
 13
878.3248017096903
 23
89.6056033810359
 33
0.0
  0
SOLID
  5
9EA
330
9E4
100
AcDbEntity
  8
0
 62
     6
100
AcDbTrace
 10
848.8247982526214
 20
89.8556033810359
 30
0.0
 11
848.8247982526214
 21
89.3556033810359
 31
0.0
 12
847.3247982526213
 22
89.6056033810359
 32
0.0
 13
847.3247982526213
 23
89.6056033810359
 33
0.0
  0
MTEXT
  5
9EB
330
9E4
100
AcDbEntity
  8
0
 62
     3
100
AcDbMText
 10
862.8247999811557
 20
90.73060338103591
 30
0.0
 40
1.5
 41
0.0
 71
     5
 72
     1
  1
\A1;31.00
  7
USER2
 73
     1
 44
1.0
1001
ACAD
1000
MTEXTBEGIN
1070
    73
1070
     1
1070
    44
1040
1.0
1070
    74
1070
     0
1000
MTEXTEND
  0
POINT
  5
9EC
330
9E4
100
AcDbEntity
  8
Defpoints
 62
     0
100
AcDbPoint
 10
878.3248017096903
 20
75.54458540722857
 30
0.0
  0
POINT
  5
9ED
330
9E4
100
AcDbEntity
  8
Defpoints
 62
     0
100
AcDbPoint
 10
847.3247982526213
 20
75.54458542387118
 30
0.0
  0
POINT
  5
9EE
330
9E4
100
AcDbEntity
  8
Defpoints
 62
     0
100
AcDbPoint
 10
847.3247982526213
 20
89.6056033810359
 30
0.0
  0
ENDBLK
  5
9EF
330
9E4
100
AcDbEntity
  8
0
 62
     6
100
AcDbBlockEnd
  0
BLOCK
  5
9F1
330
9F0
100
AcDbEntity
  8
0
 62
     6
100
AcDbBlockBegin
  2
*D12
 70
     1
 10
0.0
 20
0.0
 30
0.0
  3
*D12
  1

  0
LINE
  5
9F2
330
9F0
100
AcDbEntity
  8
0
 62
     6
100
AcDbLine
 10
874.3247991407296
 20
86.86608720189596
 30
0.0
 11
874.3247991407296
 21
86.38608720189596
 31
0.0
  0
LINE
  5
9F3
330
9F0
100
AcDbEntity
  8
0
 62
     6
100
AcDbLine
 10
878.3248017096903
 20
88.7056033810359
 30
0.0
 11
878.3248017096903
 21
85.54608720189596
 31
0.0
  0
LINE
  5
9F4
330
9F0
100
AcDbEntity
  8
0
 62
     6
370
    -2
100
AcDbLine
 10
875.8247991407296
 20
85.96608720189596
 30
0.0
 11
876.8248017096903
 21
85.96608720189596
 31
0.0
  0
LINE
  5
9F5
330
9F0
100
AcDbEntity
  8
0
 62
     6
370
    -2
100
AcDbLine
 10
878.3248017096903
 20
85.96608720189596
 30
0.0
 11
885.1462302811189
 21
85.96608720189596
 31
0.0
  0
SOLID
  5
9F6
330
9F0
100
AcDbEntity
  8
0
 62
     6
100
AcDbTrace
 10
875.8247991407296
 20
86.21608720189597
 30
0.0
 11
875.8247991407296
 21
85.71608720189596
 31
0.0
 12
874.3247991407296
 22
85.96608720189596
 32
0.0
 13
874.3247991407296
 23
85.96608720189596
 33
0.0
  0
SOLID
  5
9F7
330
9F0
100
AcDbEntity
  8
0
 62
     6
100
AcDbTrace
 10
876.8248017096903
 20
86.21608720189597
 30
0.0
 11
876.8248017096903
 21
85.71608720189596
 31
0.0
 12
878.3248017096903
 22
85.96608720189596
 32
0.0
 13
878.3248017096903
 23
85.96608720189596
 33
0.0
  0
MTEXT
  5
9F8
330
9F0
100
AcDbEntity
  8
0
 62
     3
100
AcDbMText
 10
882.4855159954045
 20
87.09108720189595
 30
0.0
 40
1.5
 41
0.0
 71
     5
 72
     1
  1
\A1;4.00
  7
USER2
 73
     1
 44
1.0
1001
ACAD
1000
MTEXTBEGIN
1070
    73
1070
     1
1070
    44
1040
1.0
1070
    74
1070
     0
1000
MTEXTEND
  0
POINT
  5
9F9
330
9F0
100
AcDbEntity
  8
Defpoints
 62
     0
100
AcDbPoint
 10
874.3247991407296
 20
85.96608720189596
 30
0.0
  0
POINT
  5
9FA
330
9F0
100
AcDbEntity
  8
Defpoints
 62
     0
100
AcDbPoint
 10
878.3248017096903
 20
89.6056033810359
 30
0.0
  0
POINT
  5
9FB
330
9F0
100
AcDbEntity
  8
Defpoints
 62
     0
100
AcDbPoint
 10
878.3248017096903
 20
85.96608720189596
 30
0.0
  0
ENDBLK
  5
9FC
330
9F0
100
AcDbEntity
  8
0
 62
     6
100
AcDbBlockEnd
  0
BLOCK
  5
C83
330
C82
100
AcDbEntity
  8
0
100
AcDbBlockBegin
  2
*D14
 70
     1
 10
0.0
 20
0.0
 30
0.0
  3
*D14
  1

  0
LINE
  5
D6D
330
C82
100
AcDbEntity
  8
0
 62
     6
100
AcDbLine
 10
110.1851231572208
 20
91.7320892673654
 30
0.0
 11
120.2709954024846
 21
91.7320892673654
 31
0.0
  0
LINE
  5
D6E
330
C82
100
AcDbEntity
  8
0
 62
     6
100
AcDbLine
 10
110.1851231572206
 20
88.73208924128837
 30
0.0
 11
120.2709954024846
 21
88.73208924128837
 31
0.0
  0
LINE
  5
D6F
330
C82
100
AcDbEntity
  8
0
 62
     6
370
    -2
100
AcDbLine
 10
119.8509954024846
 20
93.23208926736541
 30
0.0
 11
119.8509954024846
 21
94.73208926736541
 31
0.0
  0
LINE
  5
D70
330
C82
100
AcDbEntity
  8
0
 62
     6
370
    -2
100
AcDbLine
 10
119.8509954024846
 20
87.23208924128838
 30
0.0
 11
119.8509954024846
 21
82.26780352700266
 31
0.0
  0
SOLID
  5
D71
330
C82
100
AcDbEntity
  8
0
 62
     6
100
AcDbTrace
 10
119.6009954024846
 20
93.23208926736541
 30
0.0
 11
120.1009954024846
 21
93.23208926736541
 31
0.0
 12
119.8509954024846
 22
91.7320892673654
 32
0.0
 13
119.8509954024846
 23
91.7320892673654
 33
0.0
  0
SOLID
  5
D72
330
C82
100
AcDbEntity
  8
0
 62
     6
100
AcDbTrace
 10
119.6009954024846
 20
87.23208924128838
 30
0.0
 11
120.1009954024846
 21
87.23208924128838
 31
0.0
 12
119.8509954024846
 22
88.73208924128837
 32
0.0
 13
119.8509954024846
 23
88.73208924128837
 33
0.0
  0
MTEXT
  5
D73
330
C82
100
AcDbEntity
  8
0
 62
     3
100
AcDbMText
 10
118.7259954024846
 20
83.99994638414552
 30
0.0
 40
1.5
 41
0.0
 71
     5
 72
     1
  1
\A1;M3
  7
USER2
 11
0.0000000000000001
 21
1.0
 31
0.0
 73
     1
 44
1.0
1001
ACAD
1000
MTEXTBEGIN
1070
    73
1070
     1
1070
    44
1040
1.0
1070
    74
1070
     0
1000
MTEXTEND
  0
POINT
  5
D74
330
C82
100
AcDbEntity
  8
Defpoints
 62
     0
100
AcDbPoint
 10
109.2851231572208
 20
91.7320892673654
 30
0.0
  0
POINT
  5
D75
330
C82
100
AcDbEntity
  8
Defpoints
 62
     0
100
AcDbPoint
 10
109.2851231572206
 20
88.73208924128837
 30
0.0
  0
POINT
  5
D76
330
C82
100
AcDbEntity
  8
Defpoints
 62
     0
100
AcDbPoint
 10
119.8509954024846
 20
88.73208924128837
 30
0.0
  0
ENDBLK
  5
C84
330
C82
100
AcDbEntity
  8
0
100
AcDbBlockEnd
  0
BLOCK
  5
C90
330
C8F
100
AcDbEntity
  8
0
100
AcDbBlockBegin
  2
*D15
 70
     1
 10
0.0
 20
0.0
 30
0.0
  3
*D15
  1

  0
LINE
  5
D94
330
C8F
100
AcDbEntity
  8
0
 62
     6
100
AcDbLine
 10
88.28512238236214
 20
49.06232102091991
 30
0.0
 11
88.28512238236214
 21
59.00382279894468
 31
0.0
  0
LINE
  5
D95
330
C8F
100
AcDbEntity
  8
0
 62
     6
100
AcDbLine
 10
109.2851232704703
 20
46.06232074536955
 30
0.0
 11
109.2851232704703
 21
59.00382279894468
 31
0.0
  0
LINE
  5
D96
330
C8F
100
AcDbEntity
  8
0
 62
     6
370
    -2
100
AcDbLine
 10
89.78512238236215
 20
58.58382279894468
 30
0.0
 11
107.7851232704703
 21
58.58382279894468
 31
0.0
  0
SOLID
  5
D97
330
C8F
100
AcDbEntity
  8
0
 62
     6
100
AcDbTrace
 10
89.78512238236215
 20
58.83382279894468
 30
0.0
 11
89.78512238236215
 21
58.33382279894468
 31
0.0
 12
88.28512238236214
 22
58.58382279894468
 32
0.0
 13
88.28512238236214
 23
58.58382279894468
 33
0.0
  0
SOLID
  5
D98
330
C8F
100
AcDbEntity
  8
0
 62
     6
100
AcDbTrace
 10
107.7851232704703
 20
58.83382279894468
 30
0.0
 11
107.7851232704703
 21
58.33382279894468
 31
0.0
 12
109.2851232704703
 22
58.58382279894468
 32
0.0
 13
109.2851232704703
 23
58.58382279894468
 33
0.0
  0
MTEXT
  5
D99
330
C8F
100
AcDbEntity
  8
0
 62
     3
100
AcDbMText
 10
98.78512282641622
 20
59.70882279894468
 30
0.0
 40
1.5
 41
0.0
 71
     5
 72
     1
  1
\A1;21.00
  7
USER2
 73
     1
 44
1.0
1001
ACAD
1000
MTEXTBEGIN
1070
    73
1070
     1
1070
    44
1040
1.0
1070
    74
1070
     0
1000
MTEXTEND
  0
POINT
  5
D9A
330
C8F
100
AcDbEntity
  8
Defpoints
 62
     0
100
AcDbPoint
 10
88.28512238236214
 20
48.16232102091991
 30
0.0
  0
POINT
  5
D9B
330
C8F
100
AcDbEntity
  8
Defpoints
 62
     0
100
AcDbPoint
 10
109.2851232704703
 20
45.16232074536955
 30
0.0
  0
POINT
  5
D9C
330
C8F
100
AcDbEntity
  8
Defpoints
 62
     0
100
AcDbPoint
 10
109.2851232704703
 20
58.58382279894468
 30
0.0
  0
ENDBLK
  5
C91
330
C8F
100
AcDbEntity
  8
0
100
AcDbBlockEnd
  0
BLOCK
  5
C9C
330
C9B
100
AcDbEntity
  8
0
100
AcDbBlockBegin
  2
*D16
 70
     1
 10
0.0
 20
0.0
 30
0.0
  3
*D16
  1

  0
LINE
  5
D9D
330
C9B
100
AcDbEntity
  8
0
 62
     6
100
AcDbLine
 10
87.38512238236214
 20
54.16232102092003
 30
0.0
 11
76.11339918145673
 21
54.16232102092004
 31
0.0
  0
LINE
  5
D9E
330
C9B
100
AcDbEntity
  8
0
 62
     6
100
AcDbLine
 10
87.38512238236214
 20
42.16232102091978
 30
0.0
 11
76.11339918145673
 21
42.16232102091978
 31
0.0
  0
LINE
  5
D9F
330
C9B
100
AcDbEntity
  8
0
 62
     6
370
    -2
100
AcDbLine
 10
76.53339918145673
 20
52.66232102092004
 30
0.0
 11
76.53339918145673
 21
43.66232102091978
 31
0.0
  0
SOLID
  5
DA0
330
C9B
100
AcDbEntity
  8
0
 62
     6
100
AcDbTrace
 10
76.28339918145673
 20
52.66232102092004
 30
0.0
 11
76.78339918145673
 21
52.66232102092004
 31
0.0
 12
76.53339918145673
 22
54.16232102092004
 32
0.0
 13
76.53339918145673
 23
54.16232102092004
 33
0.0
  0
SOLID
  5
DA1
330
C9B
100
AcDbEntity
  8
0
 62
     6
100
AcDbTrace
 10
76.28339918145673
 20
43.66232102091978
 30
0.0
 11
76.78339918145673
 21
43.66232102091978
 31
0.0
 12
76.53339918145673
 22
42.16232102091978
 32
0.0
 13
76.53339918145673
 23
42.16232102091978
 33
0.0
  0
MTEXT
  5
DA2
330
C9B
100
AcDbEntity
  8
0
 62
     3
100
AcDbMText
 10
75.40839918145671
 20
48.16232102091992
 30
0.0
 40
1.5
 41
0.0
 71
     5
 72
     1
  1
\A1;%%C12.00
  7
USER2
 11
0.0000000000000001
 21
1.0
 31
0.0
 73
     1
 44
1.0
1001
ACAD
1000
MTEXTBEGIN
1070
    73
1070
     1
1070
    44
1040
1.0
1070
    74
1070
     0
1000
MTEXTEND
  0
POINT
  5
DA3
330
C9B
100
AcDbEntity
  8
Defpoints
 62
     0
100
AcDbPoint
 10
88.28512238236214
 20
54.16232102092003
 30
0.0
  0
POINT
  5
DA4
330
C9B
100
AcDbEntity
  8
Defpoints
 62
     0
100
AcDbPoint
 10
88.28512238236214
 20
42.16232102091978
 30
0.0
  0
POINT
  5
DA5
330
C9B
100
AcDbEntity
  8
Defpoints
 62
     0
100
AcDbPoint
 10
76.53339918145673
 20
42.16232102091978
 30
0.0
  0
ENDBLK
  5
C9D
330
C9B
100
AcDbEntity
  8
0
100
AcDbBlockEnd
  0
BLOCK
  5
CA8
330
CA7
100
AcDbEntity
  8
0
100
AcDbBlockBegin
  2
*D17
 70
     1
 10
0.0
 20
0.0
 30
0.0
  3
*D17
  1

  0
LINE
  5
DA6
330
CA7
100
AcDbEntity
  8
0
 62
     6
100
AcDbLine
 10
110.4369435814206
 20
49.41232097633755
 30
0.0
 11
119.7709954024865
 21
49.41232097633754
 31
0.0
  0
LINE
  5
DA7
330
CA7
100
AcDbEntity
  8
0
 62
     6
100
AcDbLine
 10
110.4369435814206
 20
46.91232103221691
 30
0.0
 11
119.7709954024865
 21
46.9123210322169
 31
0.0
  0
LINE
  5
DA8
330
CA7
100
AcDbEntity
  8
0
 62
     6
370
    -2
100
AcDbLine
 10
119.3509954024865
 20
50.91232097633755
 30
0.0
 11
119.3509954024865
 21
52.41232097633755
 31
0.0
  0
LINE
  5
DA9
330
CA7
100
AcDbEntity
  8
0
 62
     6
370
    -2
100
AcDbLine
 10
119.3509954024865
 20
45.4123210322169
 30
0.0
 11
119.3509954024865
 21
38.30517817507405
 31
0.0
  0
SOLID
  5
DAA
330
CA7
100
AcDbEntity
  8
0
 62
     6
100
AcDbTrace
 10
119.1009954024865
 20
50.91232097633755
 30
0.0
 11
119.6009954024865
 21
50.91232097633755
 31
0.0
 12
119.3509954024865
 22
49.41232097633754
 32
0.0
 13
119.3509954024865
 23
49.41232097633754
 33
0.0
  0
SOLID
  5
DAB
330
CA7
100
AcDbEntity
  8
0
 62
     6
100
AcDbTrace
 10
119.1009954024865
 20
45.4123210322169
 30
0.0
 11
119.6009954024865
 21
45.4123210322169
 31
0.0
 12
119.3509954024865
 22
46.9123210322169
 32
0.0
 13
119.3509954024865
 23
46.9123210322169
 33
0.0
  0
MTEXT
  5
DAC
330
CA7
100
AcDbEntity
  8
0
 62
     3
100
AcDbMText
 10
118.2259954024865
 20
41.10874960364549
 30
0.0
 40
1.5
 41
0.0
 71
     5
 72
     1
  1
\A1;M2.5
  7
USER2
 11
0.0000000000000001
 21
1.0
 31
0.0
 73
     1
 44
1.0
1001
ACAD
1000
MTEXTBEGIN
1070
    73
1070
     1
1070
    44
1040
1.0
1070
    74
1070
     0
1000
MTEXTEND
  0
POINT
  5
DAD
330
CA7
100
AcDbEntity
  8
Defpoints
 62
     0
100
AcDbPoint
 10
109.5369435814206
 20
49.41232097633755
 30
0.0
  0
POINT
  5
DAE
330
CA7
100
AcDbEntity
  8
Defpoints
 62
     0
100
AcDbPoint
 10
109.5369435814206
 20
46.91232103221691
 30
0.0
  0
POINT
  5
DAF
330
CA7
100
AcDbEntity
  8
Defpoints
 62
     0
100
AcDbPoint
 10
119.3509954024865
 20
46.9123210322169
 30
0.0
  0
ENDBLK
  5
CA9
330
CA7
100
AcDbEntity
  8
0
100
AcDbBlockEnd
  0
BLOCK
  5
CB5
330
CB4
100
AcDbEntity
  8
0
100
AcDbBlockBegin
  2
*D18
 70
     1
 10
0.0
 20
0.0
 30
0.0
  3
*D18
  1

  0
LINE
  5
DB0
330
CB4
100
AcDbEntity
  8
0
 62
     6
100
AcDbLine
 10
106.4351192829206
 20
51.41232087178756
 30
0.0
 11
123.344544006997
 21
51.41232087178755
 31
0.0
  0
LINE
  5
DB1
330
CB4
100
AcDbEntity
  8
0
 62
     6
100
AcDbLine
 10
106.4351192829206
 20
44.91232097050775
 30
0.0
 11
123.344544006997
 21
44.91232097050774
 31
0.0
  0
LINE
  5
DB2
330
CB4
100
AcDbEntity
  8
0
 62
     6
370
    -2
100
AcDbLine
 10
122.924544006997
 20
49.91232087178754
 30
0.0
 11
122.924544006997
 21
46.41232097050774
 31
0.0
  0
LINE
  5
DB3
330
CB4
100
AcDbEntity
  8
0
 62
     6
370
    -2
100
AcDbLine
 10
122.924544006997
 20
44.91232097050774
 30
0.0
 11
122.924544006997
 21
36.73374954193632
 31
0.0
  0
SOLID
  5
DB4
330
CB4
100
AcDbEntity
  8
0
 62
     6
100
AcDbTrace
 10
122.674544006997
 20
49.91232087178754
 30
0.0
 11
123.174544006997
 21
49.91232087178754
 31
0.0
 12
122.924544006997
 22
51.41232087178755
 32
0.0
 13
122.924544006997
 23
51.41232087178755
 33
0.0
  0
SOLID
  5
DB5
330
CB4
100
AcDbEntity
  8
0
 62
     6
100
AcDbTrace
 10
122.674544006997
 20
46.41232097050774
 30
0.0
 11
123.174544006997
 21
46.41232097050774
 31
0.0
 12
122.924544006997
 22
44.91232097050774
 32
0.0
 13
122.924544006997
 23
44.91232097050774
 33
0.0
  0
MTEXT
  5
DB6
330
CB4
100
AcDbEntity
  8
0
 62
     3
100
AcDbMText
 10
121.799544006997
 20
40.07303525622204
 30
0.0
 40
1.5
 41
0.0
 71
     5
 72
     1
  1
\A1;%%C6.50
  7
USER2
 11
0.0000000000000001
 21
1.0
 31
0.0
 73
     1
 44
1.0
1001
ACAD
1000
MTEXTBEGIN
1070
    73
1070
     1
1070
    44
1040
1.0
1070
    74
1070
     0
1000
MTEXTEND
  0
POINT
  5
DB7
330
CB4
100
AcDbEntity
  8
Defpoints
 62
     0
100
AcDbPoint
 10
105.5351192829206
 20
51.41232087178756
 30
0.0
  0
POINT
  5
DB8
330
CB4
100
AcDbEntity
  8
Defpoints
 62
     0
100
AcDbPoint
 10
105.5351192829206
 20
44.91232097050775
 30
0.0
  0
POINT
  5
DB9
330
CB4
100
AcDbEntity
  8
Defpoints
 62
     0
100
AcDbPoint
 10
122.924544006997
 20
44.91232097050774
 30
0.0
  0
ENDBLK
  5
CB6
330
CB4
100
AcDbEntity
  8
0
100
AcDbBlockEnd
  0
BLOCK
  5
CC2
330
CC1
100
AcDbEntity
  8
0
100
AcDbBlockBegin
  2
*D19
 70
     1
 10
0.0
 20
0.0
 30
0.0
  3
*D19
  1

  0
LINE
  5
DBA
330
CC1
100
AcDbEntity
  8
0
 62
     6
100
AcDbLine
 10
113.285125839431
 20
49.06232100427729
 30
0.0
 11
113.285125839431
 21
62.64333897808462
 31
0.0
  0
LINE
  5
DBB
330
CC1
100
AcDbEntity
  8
0
 62
     6
100
AcDbLine
 10
82.28512238236215
 20
49.06232102091991
 30
0.0
 11
82.28512238236215
 21
62.64333897808462
 31
0.0
  0
LINE
  5
DBC
330
CC1
100
AcDbEntity
  8
0
 62
     6
370
    -2
100
AcDbLine
 10
111.785125839431
 20
62.22333897808463
 30
0.0
 11
83.78512238236215
 21
62.22333897808463
 31
0.0
  0
SOLID
  5
DBD
330
CC1
100
AcDbEntity
  8
0
 62
     6
100
AcDbTrace
 10
111.785125839431
 20
62.47333897808463
 30
0.0
 11
111.785125839431
 21
61.97333897808462
 31
0.0
 12
113.285125839431
 22
62.22333897808463
 32
0.0
 13
113.285125839431
 23
62.22333897808463
 33
0.0
  0
SOLID
  5
DBE
330
CC1
100
AcDbEntity
  8
0
 62
     6
100
AcDbTrace
 10
83.78512238236215
 20
62.47333897808463
 30
0.0
 11
83.78512238236215
 21
61.97333897808462
 31
0.0
 12
82.28512238236215
 22
62.22333897808463
 32
0.0
 13
82.28512238236215
 23
62.22333897808463
 33
0.0
  0
MTEXT
  5
DBF
330
CC1
100
AcDbEntity
  8
0
 62
     3
100
AcDbMText
 10
97.78512411089657
 20
63.34833897808462
 30
0.0
 40
1.5
 41
0.0
 71
     5
 72
     1
  1
\A1;31.00
  7
USER2
 73
     1
 44
1.0
1001
ACAD
1000
MTEXTBEGIN
1070
    73
1070
     1
1070
    44
1040
1.0
1070
    74
1070
     0
1000
MTEXTEND
  0
POINT
  5
DC0
330
CC1
100
AcDbEntity
  8
Defpoints
 62
     0
100
AcDbPoint
 10
113.285125839431
 20
48.16232100427729
 30
0.0
  0
POINT
  5
DC1
330
CC1
100
AcDbEntity
  8
Defpoints
 62
     0
100
AcDbPoint
 10
82.28512238236215
 20
48.16232102091991
 30
0.0
  0
POINT
  5
DC2
330
CC1
100
AcDbEntity
  8
Defpoints
 62
     0
100
AcDbPoint
 10
82.28512238236215
 20
62.22333897808463
 30
0.0
  0
ENDBLK
  5
CC3
330
CC1
100
AcDbEntity
  8
0
100
AcDbBlockEnd
  0
BLOCK
  5
CCE
330
CCD
100
AcDbEntity
  8
0
100
AcDbBlockBegin
  2
*D20
 70
     1
 10
0.0
 20
0.0
 30
0.0
  3
*D20
  1

  0
LINE
  5
DC3
330
CCD
100
AcDbEntity
  8
0
 62
     6
100
AcDbLine
 10
109.2851232704703
 20
59.48382279894468
 30
0.0
 11
109.2851232704703
 21
59.00382279894468
 31
0.0
  0
LINE
  5
DC4
330
CCD
100
AcDbEntity
  8
0
 62
     6
100
AcDbLine
 10
113.285125839431
 20
61.32333897808463
 30
0.0
 11
113.285125839431
 21
58.16382279894468
 31
0.0
  0
LINE
  5
DC5
330
CCD
100
AcDbEntity
  8
0
 62
     6
370
    -2
100
AcDbLine
 10
110.7851232704703
 20
58.58382279894468
 30
0.0
 11
111.785125839431
 21
58.58382279894468
 31
0.0
  0
LINE
  5
DC6
330
CCD
100
AcDbEntity
  8
0
 62
     6
370
    -2
100
AcDbLine
 10
113.285125839431
 20
58.58382279894468
 30
0.0
 11
120.1065544108595
 21
58.58382279894468
 31
0.0
  0
SOLID
  5
DC7
330
CCD
100
AcDbEntity
  8
0
 62
     6
100
AcDbTrace
 10
110.7851232704703
 20
58.83382279894468
 30
0.0
 11
110.7851232704703
 21
58.33382279894468
 31
0.0
 12
109.2851232704703
 22
58.58382279894468
 32
0.0
 13
109.2851232704703
 23
58.58382279894468
 33
0.0
  0
SOLID
  5
DC8
330
CCD
100
AcDbEntity
  8
0
 62
     6
100
AcDbTrace
 10
111.785125839431
 20
58.83382279894468
 30
0.0
 11
111.785125839431
 21
58.33382279894468
 31
0.0
 12
113.285125839431
 22
58.58382279894468
 32
0.0
 13
113.285125839431
 23
58.58382279894468
 33
0.0
  0
MTEXT
  5
DC9
330
CCD
100
AcDbEntity
  8
0
 62
     3
100
AcDbMText
 10
117.4458401251452
 20
59.70882279894468
 30
0.0
 40
1.5
 41
0.0
 71
     5
 72
     1
  1
\A1;4.00
  7
USER2
 73
     1
 44
1.0
1001
ACAD
1000
MTEXTBEGIN
1070
    73
1070
     1
1070
    44
1040
1.0
1070
    74
1070
     0
1000
MTEXTEND
  0
POINT
  5
DCA
330
CCD
100
AcDbEntity
  8
Defpoints
 62
     0
100
AcDbPoint
 10
109.2851232704703
 20
58.58382279894468
 30
0.0
  0
POINT
  5
DCB
330
CCD
100
AcDbEntity
  8
Defpoints
 62
     0
100
AcDbPoint
 10
113.285125839431
 20
62.22333897808463
 30
0.0
  0
POINT
  5
DCC
330
CCD
100
AcDbEntity
  8
Defpoints
 62
     0
100
AcDbPoint
 10
113.285125839431
 20
58.58382279894468
 30
0.0
  0
ENDBLK
  5
CCF
330
CCD
100
AcDbEntity
  8
0
100
AcDbBlockEnd
  0
BLOCK
  5
CDB
330
CDA
100
AcDbEntity
  8
0
100
AcDbBlockBegin
  2
*D21
 70
     1
 10
0.0
 20
0.0
 30
0.0
  3
*D21
  1

  0
LINE
  5
D5B
330
CDA
100
AcDbEntity
  8
0
 62
     6
100
AcDbLine
 10
88.28512238236021
 20
91.13208923768377
 30
0.0
 11
88.28512238236021
 21
101.0735910157085
 31
0.0
  0
LINE
  5
D5C
330
CDA
100
AcDbEntity
  8
0
 62
     6
100
AcDbLine
 10
109.2851231572206
 20
88.13208922824987
 30
0.0
 11
109.2851231572206
 21
101.0735910157085
 31
0.0
  0
LINE
  5
D5D
330
CDA
100
AcDbEntity
  8
0
 62
     6
370
    -2
100
AcDbLine
 10
89.78512238236021
 20
100.6535910157085
 30
0.0
 11
107.7851231572206
 21
100.6535910157085
 31
0.0
  0
SOLID
  5
D5E
330
CDA
100
AcDbEntity
  8
0
 62
     6
100
AcDbTrace
 10
89.78512238236021
 20
100.9035910157085
 30
0.0
 11
89.78512238236021
 21
100.4035910157085
 31
0.0
 12
88.28512238236021
 22
100.6535910157085
 32
0.0
 13
88.28512238236021
 23
100.6535910157085
 33
0.0
  0
SOLID
  5
D5F
330
CDA
100
AcDbEntity
  8
0
 62
     6
100
AcDbTrace
 10
107.7851231572206
 20
100.9035910157085
 30
0.0
 11
107.7851231572206
 21
100.4035910157085
 31
0.0
 12
109.2851231572206
 22
100.6535910157085
 32
0.0
 13
109.2851231572206
 23
100.6535910157085
 33
0.0
  0
MTEXT
  5
D60
330
CDA
100
AcDbEntity
  8
0
 62
     3
100
AcDbMText
 10
98.78512276979041
 20
101.7785910157085
 30
0.0
 40
1.5
 41
0.0
 71
     5
 72
     1
  1
\A1;21.00
  7
USER2
 73
     1
 44
1.0
1001
ACAD
1000
MTEXTBEGIN
1070
    73
1070
     1
1070
    44
1040
1.0
1070
    74
1070
     0
1000
MTEXTEND
  0
POINT
  5
D61
330
CDA
100
AcDbEntity
  8
Defpoints
 62
     0
100
AcDbPoint
 10
88.28512238236021
 20
90.23208923768377
 30
0.0
  0
POINT
  5
D62
330
CDA
100
AcDbEntity
  8
Defpoints
 62
     0
100
AcDbPoint
 10
109.2851231572206
 20
87.23208922824985
 30
0.0
  0
POINT
  5
D63
330
CDA
100
AcDbEntity
  8
Defpoints
 62
     0
100
AcDbPoint
 10
109.2851231572206
 20
100.6535910157085
 30
0.0
  0
ENDBLK
  5
CDC
330
CDA
100
AcDbEntity
  8
0
100
AcDbBlockEnd
  0
BLOCK
  5
CE7
330
CE6
100
AcDbEntity
  8
0
100
AcDbBlockBegin
  2
*D22
 70
     1
 10
0.0
 20
0.0
 30
0.0
  3
*D22
  1

  0
LINE
  5
D64
330
CE6
100
AcDbEntity
  8
0
 62
     6
100
AcDbLine
 10
87.38512238236021
 20
96.23208923768389
 30
0.0
 11
76.11339918145481
 21
96.23208923768389
 31
0.0
  0
LINE
  5
D65
330
CE6
100
AcDbEntity
  8
0
 62
     6
100
AcDbLine
 10
87.38512238236021
 20
84.23208923768363
 30
0.0
 11
76.11339918145479
 21
84.23208923768363
 31
0.0
  0
LINE
  5
D66
330
CE6
100
AcDbEntity
  8
0
 62
     6
370
    -2
100
AcDbLine
 10
76.5333991814548
 20
94.73208923768389
 30
0.0
 11
76.5333991814548
 21
85.73208923768364
 31
0.0
  0
SOLID
  5
D67
330
CE6
100
AcDbEntity
  8
0
 62
     6
100
AcDbTrace
 10
76.2833991814548
 20
94.73208923768389
 30
0.0
 11
76.78339918145479
 21
94.73208923768389
 31
0.0
 12
76.53339918145481
 22
96.23208923768389
 32
0.0
 13
76.53339918145481
 23
96.23208923768389
 33
0.0
  0
SOLID
  5
D68
330
CE6
100
AcDbEntity
  8
0
 62
     6
100
AcDbTrace
 10
76.2833991814548
 20
85.73208923768364
 30
0.0
 11
76.78339918145479
 21
85.73208923768364
 31
0.0
 12
76.5333991814548
 22
84.23208923768363
 32
0.0
 13
76.5333991814548
 23
84.23208923768363
 33
0.0
  0
MTEXT
  5
D69
330
CE6
100
AcDbEntity
  8
0
 62
     3
100
AcDbMText
 10
75.40839918145478
 20
90.23208923768377
 30
0.0
 40
1.5
 41
0.0
 71
     5
 72
     1
  1
\A1;%%C12.00
  7
USER2
 11
0.0000000000000001
 21
1.0
 31
0.0
 73
     1
 44
1.0
1001
ACAD
1000
MTEXTBEGIN
1070
    73
1070
     1
1070
    44
1040
1.0
1070
    74
1070
     0
1000
MTEXTEND
  0
POINT
  5
D6A
330
CE6
100
AcDbEntity
  8
Defpoints
 62
     0
100
AcDbPoint
 10
88.28512238236021
 20
96.23208923768389
 30
0.0
  0
POINT
  5
D6B
330
CE6
100
AcDbEntity
  8
Defpoints
 62
     0
100
AcDbPoint
 10
88.28512238236021
 20
84.23208923768363
 30
0.0
  0
POINT
  5
D6C
330
CE6
100
AcDbEntity
  8
Defpoints
 62
     0
100
AcDbPoint
 10
76.5333991814548
 20
84.23208923768363
 30
0.0
  0
ENDBLK
  5
CE8
330
CE6
100
AcDbEntity
  8
0
100
AcDbBlockEnd
  0
BLOCK
  5
CFD
330
CFC
100
AcDbEntity
  8
0
100
AcDbBlockBegin
  2
*D23
 70
     1
 10
0.0
 20
0.0
 30
0.0
  3
*D23
  1

  0
LINE
  5
D77
330
CFC
100
AcDbEntity
  8
0
 62
     6
100
AcDbLine
 10
106.4351192829187
 20
93.48208908855141
 30
0.0
 11
123.3445440069951
 21
93.48208908855141
 31
0.0
  0
LINE
  5
D78
330
CFC
100
AcDbEntity
  8
0
 62
     6
100
AcDbLine
 10
106.4351192829187
 20
86.98208918727161
 30
0.0
 11
123.3445440069951
 21
86.98208918727161
 31
0.0
  0
LINE
  5
D79
330
CFC
100
AcDbEntity
  8
0
 62
     6
370
    -2
100
AcDbLine
 10
122.9245440069951
 20
91.98208908855141
 30
0.0
 11
122.9245440069951
 21
88.48208918727161
 31
0.0
  0
LINE
  5
D7A
330
CFC
100
AcDbEntity
  8
0
 62
     6
370
    -2
100
AcDbLine
 10
122.9245440069951
 20
86.98208918727161
 30
0.0
 11
122.9245440069951
 21
78.80351775870017
 31
0.0
  0
SOLID
  5
D7B
330
CFC
100
AcDbEntity
  8
0
 62
     6
100
AcDbTrace
 10
122.6745440069951
 20
91.98208908855141
 30
0.0
 11
123.1745440069951
 21
91.98208908855141
 31
0.0
 12
122.9245440069951
 22
93.48208908855141
 32
0.0
 13
122.9245440069951
 23
93.48208908855141
 33
0.0
  0
SOLID
  5
D7C
330
CFC
100
AcDbEntity
  8
0
 62
     6
100
AcDbTrace
 10
122.6745440069951
 20
88.48208918727161
 30
0.0
 11
123.1745440069951
 21
88.48208918727161
 31
0.0
 12
122.9245440069951
 22
86.98208918727161
 32
0.0
 13
122.9245440069951
 23
86.98208918727161
 33
0.0
  0
MTEXT
  5
D7D
330
CFC
100
AcDbEntity
  8
0
 62
     3
100
AcDbMText
 10
121.7995440069951
 20
82.1428034729859
 30
0.0
 40
1.5
 41
0.0
 71
     5
 72
     1
  1
\A1;%%C6.50
  7
USER2
 11
0.0000000000000001
 21
1.0
 31
0.0
 73
     1
 44
1.0
1001
ACAD
1000
MTEXTBEGIN
1070
    73
1070
     1
1070
    44
1040
1.0
1070
    74
1070
     0
1000
MTEXTEND
  0
POINT
  5
D7E
330
CFC
100
AcDbEntity
  8
Defpoints
 62
     0
100
AcDbPoint
 10
105.5351192829186
 20
93.48208908855141
 30
0.0
  0
POINT
  5
D7F
330
CFC
100
AcDbEntity
  8
Defpoints
 62
     0
100
AcDbPoint
 10
105.5351192829186
 20
86.98208918727161
 30
0.0
  0
POINT
  5
D80
330
CFC
100
AcDbEntity
  8
Defpoints
 62
     0
100
AcDbPoint
 10
122.9245440069951
 20
86.98208918727161
 30
0.0
  0
ENDBLK
  5
CFE
330
CFC
100
AcDbEntity
  8
0
100
AcDbBlockEnd
  0
BLOCK
  5
D0A
330
D09
100
AcDbEntity
  8
0
100
AcDbBlockBegin
  2
*D24
 70
     1
 10
0.0
 20
0.0
 30
0.0
  3
*D24
  1

  0
LINE
  5
D81
330
D09
100
AcDbEntity
  8
0
 62
     6
100
AcDbLine
 10
114.7851258394296
 20
91.13208925432696
 30
0.0
 11
114.7851258394296
 21
101.0735910157084
 31
0.0
  0
LINE
  5
D82
330
D09
100
AcDbEntity
  8
0
 62
     6
100
AcDbLine
 10
109.2851231572206
 20
88.13208922824987
 30
0.0
 11
109.2851231572206
 21
101.0735910157084
 31
0.0
  0
LINE
  5
D83
330
D09
100
AcDbEntity
  8
0
 62
     6
370
    -2
100
AcDbLine
 10
110.7851231572206
 20
100.6535910157084
 30
0.0
 11
113.2851258394296
 21
100.6535910157084
 31
0.0
  0
LINE
  5
D84
330
D09
100
AcDbEntity
  8
0
 62
     6
370
    -2
100
AcDbLine
 10
114.7851258394296
 20
100.6535910157084
 30
0.0
 11
121.6065544108582
 21
100.6535910157084
 31
0.0
  0
SOLID
  5
D85
330
D09
100
AcDbEntity
  8
0
 62
     6
100
AcDbTrace
 10
110.7851231572206
 20
100.9035910157084
 30
0.0
 11
110.7851231572206
 21
100.4035910157084
 31
0.0
 12
109.2851231572206
 22
100.6535910157084
 32
0.0
 13
109.2851231572206
 23
100.6535910157084
 33
0.0
  0
SOLID
  5
D86
330
D09
100
AcDbEntity
  8
0
 62
     6
100
AcDbTrace
 10
113.2851258394296
 20
100.9035910157084
 30
0.0
 11
113.2851258394296
 21
100.4035910157084
 31
0.0
 12
114.7851258394296
 22
100.6535910157084
 32
0.0
 13
114.7851258394296
 23
100.6535910157084
 33
0.0
  0
MTEXT
  5
D87
330
D09
100
AcDbEntity
  8
0
 62
     3
100
AcDbMText
 10
118.9458401251439
 20
101.7785910157084
 30
0.0
 40
1.5
 41
0.0
 71
     5
 72
     1
  1
\A1;5.50
  7
USER2
 73
     1
 44
1.0
1001
ACAD
1000
MTEXTBEGIN
1070
    73
1070
     1
1070
    44
1040
1.0
1070
    74
1070
     0
1000
MTEXTEND
  0
POINT
  5
D88
330
D09
100
AcDbEntity
  8
Defpoints
 62
     0
100
AcDbPoint
 10
114.7851258394296
 20
90.23208925432696
 30
0.0
  0
POINT
  5
D89
330
D09
100
AcDbEntity
  8
Defpoints
 62
     0
100
AcDbPoint
 10
109.2851231572206
 20
87.23208922824985
 30
0.0
  0
POINT
  5
D8A
330
D09
100
AcDbEntity
  8
Defpoints
 62
     0
100
AcDbPoint
 10
109.2851231572206
 20
100.6535910157084
 30
0.0
  0
ENDBLK
  5
D0B
330
D09
100
AcDbEntity
  8
0
100
AcDbBlockEnd
  0
BLOCK
  5
D17
330
D16
100
AcDbEntity
  8
0
100
AcDbBlockBegin
  2
*D25
 70
     1
 10
0.0
 20
0.0
 30
0.0
  3
*D25
  1

  0
LINE
  5
D8B
330
D16
100
AcDbEntity
  8
0
 62
     6
100
AcDbLine
 10
114.7851258394296
 20
91.13208925432696
 30
0.0
 11
114.7851258394296
 21
104.7131071948484
 31
0.0
  0
LINE
  5
D8C
330
D16
100
AcDbEntity
  8
0
 62
     6
100
AcDbLine
 10
82.28512238236021
 20
91.13208923768377
 30
0.0
 11
82.28512238236021
 21
104.7131071948484
 31
0.0
  0
LINE
  5
D8D
330
D16
100
AcDbEntity
  8
0
 62
     6
370
    -2
100
AcDbLine
 10
113.2851258394296
 20
104.2931071948483
 30
0.0
 11
83.78512238236021
 21
104.2931071948483
 31
0.0
  0
SOLID
  5
D8E
330
D16
100
AcDbEntity
  8
0
 62
     6
100
AcDbTrace
 10
113.2851258394296
 20
104.5431071948484
 30
0.0
 11
113.2851258394296
 21
104.0431071948483
 31
0.0
 12
114.7851258394296
 22
104.2931071948483
 32
0.0
 13
114.7851258394296
 23
104.2931071948483
 33
0.0
  0
SOLID
  5
D8F
330
D16
100
AcDbEntity
  8
0
 62
     6
100
AcDbTrace
 10
83.78512238236021
 20
104.5431071948484
 30
0.0
 11
83.78512238236021
 21
104.0431071948483
 31
0.0
 12
82.28512238236021
 22
104.2931071948483
 32
0.0
 13
82.28512238236021
 23
104.2931071948483
 33
0.0
  0
MTEXT
  5
D90
330
D16
100
AcDbEntity
  8
0
 62
     3
100
AcDbMText
 10
98.53512411089491
 20
105.4181071948484
 30
0.0
 40
1.5
 41
0.0
 71
     5
 72
     1
  1
\A1;32.50
  7
USER2
 73
     1
 44
1.0
1001
ACAD
1000
MTEXTBEGIN
1070
    73
1070
     1
1070
    44
1040
1.0
1070
    74
1070
     0
1000
MTEXTEND
  0
POINT
  5
D91
330
D16
100
AcDbEntity
  8
Defpoints
 62
     0
100
AcDbPoint
 10
114.7851258394296
 20
90.23208925432696
 30
0.0
  0
POINT
  5
D92
330
D16
100
AcDbEntity
  8
Defpoints
 62
     0
100
AcDbPoint
 10
82.28512238236021
 20
90.23208923768377
 30
0.0
  0
POINT
  5
D93
330
D16
100
AcDbEntity
  8
Defpoints
 62
     0
100
AcDbPoint
 10
82.28512238236021
 20
104.2931071948483
 30
0.0
  0
ENDBLK
  5
D18
330
D16
100
AcDbEntity
  8
0
100
AcDbBlockEnd
  0
ENDSEC
  0
SECTION
  2
ENTITIES
  0
LWPOLYLINE
  5
B4A
330
1F
100
AcDbEntity
  8
0
 62
     6
100
AcDbPolyline
 90
        4
 70
     1
 43
0.0
 10
0.0
 20
140.0000000000106
 10
197.9999999999999
 20
140.0000000000106
 10
197.9999999999999
 20
0.0
 10
0.0
 20
0.0
  0
LINE
  5
B4B
330
1F
100
AcDbEntity
  8
0
  6
Continuous
 62
     7
370
    25
100
AcDbLine
 10
114.3438950058992
 20
91.73208926736547
 30
0.0
 11
114.1474902507837
 21
91.4515893433912
 31
0.0
  0
LINE
  5
B4C
330
1F
100
AcDbEntity
  8
0
  6
Continuous
 62
     7
370
    25
100
AcDbLine
 10
114.1474902507837
 20
89.01258916526272
 30
0.0
 11
114.3438950058992
 21
88.73208924128844
 31
0.0
  0
LINE
  5
B4D
330
1F
100
AcDbEntity
  8
0
  6
Continuous
 62
     7
370
    25
100
AcDbLine
 10
114.4267678138787
 20
91.73208926736547
 30
0.0
 11
114.3438950058992
 21
91.73208926736547
 31
0.0
  0
LINE
  5
B4E
330
1F
100
AcDbEntity
  8
0
  6
Continuous
 62
     7
370
    25
100
AcDbLine
 10
114.3438950058992
 20
88.73208924128844
 30
0.0
 11
114.4267678138787
 21
88.73208924128844
 31
0.0
  0
LINE
  5
B4F
330
1F
100
AcDbEntity
  8
0
  6
Continuous
 62
     7
370
    25
100
AcDbLine
 10
114.4267678138787
 20
88.73208924128844
 30
0.0
 11
114.6231725689943
 21
89.01258916526272
 31
0.0
  0
LINE
  5
B50
330
1F
100
AcDbEntity
  8
0
  6
Continuous
 62
     7
370
    25
100
AcDbLine
 10
114.6231725689943
 20
91.4515893433912
 30
0.0
 11
114.4267678138787
 21
91.73208926736547
 31
0.0
  0
LINE
  5
B51
330
1F
100
AcDbEntity
  8
0
  6
Continuous
 62
     7
370
    25
100
AcDbLine
 10
113.9510780450875
 20
91.73208926736547
 30
0.0
 11
113.8682126876886
 21
91.73208926736547
 31
0.0
  0
LINE
  5
B52
330
1F
100
AcDbEntity
  8
0
  6
Continuous
 62
     7
370
    25
100
AcDbLine
 10
113.8682126876886
 20
88.73208924128844
 30
0.0
 11
113.9510780450875
 21
88.73208924128844
 31
0.0
  0
LINE
  5
B53
330
1F
100
AcDbEntity
  8
0
  6
Continuous
 62
     7
370
    25
100
AcDbLine
 10
113.9510780450875
 20
88.73208924128844
 30
0.0
 11
114.1474902507837
 21
89.01258916526272
 31
0.0
  0
LINE
  5
B54
330
1F
100
AcDbEntity
  8
0
  6
Continuous
 62
     7
370
    25
100
AcDbLine
 10
114.1474902507837
 20
91.4515893433912
 30
0.0
 11
113.9510780450875
 21
91.73208926736547
 31
0.0
  0
LINE
  5
B55
330
1F
100
AcDbEntity
  8
0
  6
Continuous
 62
     7
370
    25
100
AcDbLine
 10
113.8682126876886
 20
91.73208926736547
 30
0.0
 11
113.6718004819925
 21
91.4515893433912
 31
0.0
  0
LINE
  5
B56
330
1F
100
AcDbEntity
  8
0
  6
Continuous
 62
     7
370
    25
100
AcDbLine
 10
113.6718004819925
 20
89.01258916526272
 30
0.0
 11
113.8682126876886
 21
88.73208924128844
 31
0.0
  0
LINE
  5
B57
330
1F
100
AcDbEntity
  8
0
  6
Continuous
 62
     7
370
    25
100
AcDbLine
 10
113.4753957268769
 20
88.73208924128844
 30
0.0
 11
113.6718004819925
 21
89.01258916526272
 31
0.0
  0
LINE
  5
B58
330
1F
100
AcDbEntity
  8
0
  6
Continuous
 62
     7
370
    25
100
AcDbLine
 10
113.6718004819925
 20
91.4515893433912
 30
0.0
 11
113.4753957268769
 21
91.73208926736547
 31
0.0
  0
LINE
  5
B59
330
1F
100
AcDbEntity
  8
0
  6
Continuous
 62
     7
370
    25
100
AcDbLine
 10
112.5240161892945
 20
88.73208924128844
 30
0.0
 11
112.7204283949907
 21
89.01258916526272
 31
0.0
  0
LINE
  5
B5A
330
1F
100
AcDbEntity
  8
0
  6
Continuous
 62
     7
370
    25
100
AcDbLine
 10
112.7204283949907
 20
91.4515893433912
 30
0.0
 11
112.5240161892945
 21
91.73208926736547
 31
0.0
  0
LINE
  5
B5B
330
1F
100
AcDbEntity
  8
0
  6
Continuous
 62
     7
370
    25
100
AcDbLine
 10
113.4753957268769
 20
91.73208926736547
 30
0.0
 11
113.3925229188974
 21
91.73208926736547
 31
0.0
  0
LINE
  5
B5C
330
1F
100
AcDbEntity
  8
0
  6
Continuous
 62
     7
370
    25
100
AcDbLine
 10
113.3925229188974
 20
88.73208924128844
 30
0.0
 11
113.4753957268769
 21
88.73208924128844
 31
0.0
  0
LINE
  5
B5D
330
1F
100
AcDbEntity
  8
0
  6
Continuous
 62
     7
370
    25
100
AcDbLine
 10
112.9168331501062
 20
91.73208926736547
 30
0.0
 11
112.7204283949907
 21
91.4515893433912
 31
0.0
  0
LINE
  5
B5E
330
1F
100
AcDbEntity
  8
0
  6
Continuous
 62
     7
370
    25
100
AcDbLine
 10
112.7204283949907
 20
89.01258916526272
 30
0.0
 11
112.9168331501062
 21
88.73208924128844
 31
0.0
  0
LINE
  5
B5F
330
1F
100
AcDbEntity
  8
0
  6
Continuous
 62
     7
370
    25
100
AcDbLine
 10
112.5240161892945
 20
91.73208926736547
 30
0.0
 11
112.4411508318956
 21
91.73208926736547
 31
0.0
  0
LINE
  5
B60
330
1F
100
AcDbEntity
  8
0
  6
Continuous
 62
     7
370
    25
100
AcDbLine
 10
112.4411508318956
 20
88.73208924128844
 30
0.0
 11
112.5240161892945
 21
88.73208924128844
 31
0.0
  0
LINE
  5
B61
330
1F
100
AcDbEntity
  8
0
  6
Continuous
 62
     7
370
    25
100
AcDbLine
 10
112.4411508318956
 20
91.73208926736547
 30
0.0
 11
112.2447386261995
 21
91.4515893433912
 31
0.0
  0
LINE
  5
B62
330
1F
100
AcDbEntity
  8
0
  6
Continuous
 62
     7
370
    25
100
AcDbLine
 10
112.2447386261995
 20
89.01258916526272
 30
0.0
 11
112.4411508318956
 21
88.73208924128844
 31
0.0
  0
LINE
  5
B63
330
1F
100
AcDbEntity
  8
0
  6
Continuous
 62
     7
370
    25
100
AcDbLine
 10
112.9997059580857
 20
91.73208926736547
 30
0.0
 11
112.9168331501062
 21
91.73208926736547
 31
0.0
  0
LINE
  5
B64
330
1F
100
AcDbEntity
  8
0
  6
Continuous
 62
     7
370
    25
100
AcDbLine
 10
112.9168331501062
 20
88.73208924128844
 30
0.0
 11
112.9997059580857
 21
88.73208924128844
 31
0.0
  0
LINE
  5
B65
330
1F
100
AcDbEntity
  8
0
  6
Continuous
 62
     7
370
    25
100
AcDbLine
 10
113.3925229188974
 20
91.73208926736547
 30
0.0
 11
113.1961181637819
 21
91.4515893433912
 31
0.0
  0
LINE
  5
B66
330
1F
100
AcDbEntity
  8
0
  6
Continuous
 62
     7
370
    25
100
AcDbLine
 10
113.1961181637819
 20
89.01258916526272
 30
0.0
 11
113.3925229188974
 21
88.73208924128844
 31
0.0
  0
LINE
  5
B67
330
1F
100
AcDbEntity
  8
0
  6
Continuous
 62
     7
370
    25
100
AcDbLine
 10
112.0483338710839
 20
88.73208924128837
 30
0.0
 11
112.2447386261995
 21
89.01258916526272
 31
0.0
  0
LINE
  5
B68
330
1F
100
AcDbEntity
  8
0
  6
Continuous
 62
     7
370
    25
100
AcDbLine
 10
112.2447386261995
 20
91.4515893433912
 30
0.0
 11
112.0483338710839
 21
91.73208926736547
 31
0.0
  0
LINE
  5
B69
330
1F
100
AcDbEntity
  8
0
  6
Continuous
 62
     7
370
    25
100
AcDbLine
 10
112.9997059580857
 20
88.73208924128844
 30
0.0
 11
113.1961181637819
 21
89.01258916526272
 31
0.0
  0
LINE
  5
B6A
330
1F
100
AcDbEntity
  8
0
  6
Continuous
 62
     7
370
    25
100
AcDbLine
 10
113.1961181637819
 20
91.4515893433912
 30
0.0
 11
112.9997059580857
 21
91.73208926736547
 31
0.0
  0
LINE
  5
B6B
330
1F
100
AcDbEntity
  8
0
  6
Continuous
 62
     7
370
    25
100
AcDbLine
 10
111.5726441022927
 20
91.7320892673654
 30
0.0
 11
111.4897712943132
 21
91.7320892673654
 31
0.0
  0
LINE
  5
B6C
330
1F
100
AcDbEntity
  8
0
  6
Continuous
 62
     7
370
    25
100
AcDbLine
 10
111.4897712943132
 20
88.73208924128837
 30
0.0
 11
111.5726441022927
 21
88.73208924128837
 31
0.0
  0
LINE
  5
B6D
330
1F
100
AcDbEntity
  8
0
  6
Continuous
 62
     7
370
    25
100
AcDbLine
 10
110.6212720152909
 20
88.73208924128837
 30
0.0
 11
110.8176767704065
 21
89.01258916526264
 31
0.0
  0
LINE
  5
B6E
330
1F
100
AcDbEntity
  8
0
  6
Continuous
 62
     7
370
    25
100
AcDbLine
 10
110.8176767704065
 20
91.45158934339113
 30
0.0
 11
110.6212720152909
 21
91.7320892673654
 31
0.0
  0
LINE
  5
B6F
330
1F
100
AcDbEntity
  8
0
  6
Continuous
 62
     7
370
    25
100
AcDbLine
 10
111.4897712943132
 20
91.7320892673654
 30
0.0
 11
111.2933665391977
 21
91.45158934339113
 31
0.0
  0
LINE
  5
B70
330
1F
100
AcDbEntity
  8
0
  6
Continuous
 62
     7
370
    25
100
AcDbLine
 10
111.2933665391977
 20
89.01258916526264
 30
0.0
 11
111.4897712943132
 21
88.73208924128837
 31
0.0
  0
LINE
  5
B71
330
1F
100
AcDbEntity
  8
0
  6
Continuous
 62
     7
370
    25
100
AcDbLine
 10
111.0969617840821
 20
88.73208924128837
 30
0.0
 11
111.2933665391977
 21
89.01258916526264
 31
0.0
  0
LINE
  5
B72
330
1F
100
AcDbEntity
  8
0
  6
Continuous
 62
     7
370
    25
100
AcDbLine
 10
111.2933665391977
 20
91.45158934339113
 30
0.0
 11
111.0969617840821
 21
91.7320892673654
 31
0.0
  0
LINE
  5
B73
330
1F
100
AcDbEntity
  8
0
  6
Continuous
 62
     7
370
    25
100
AcDbLine
 10
111.5726441022927
 20
88.73208924128837
 30
0.0
 11
111.7690563079889
 21
89.01258916526264
 31
0.0
  0
LINE
  5
B74
330
1F
100
AcDbEntity
  8
0
  6
Continuous
 62
     7
370
    25
100
AcDbLine
 10
111.7690563079889
 20
91.45158934339113
 30
0.0
 11
111.5726441022927
 21
91.7320892673654
 31
0.0
  0
LINE
  5
B75
330
1F
100
AcDbEntity
  8
0
  6
Continuous
 62
     7
370
    25
100
AcDbLine
 10
111.9654610631044
 20
91.7320892673654
 30
0.0
 11
111.7690563079889
 21
91.45158934339113
 31
0.0
  0
LINE
  5
B76
330
1F
100
AcDbEntity
  8
0
  6
Continuous
 62
     7
370
    25
100
AcDbLine
 10
111.7690563079889
 20
89.01258916526264
 30
0.0
 11
111.9654610631044
 21
88.73208924128837
 31
0.0
  0
LINE
  5
B77
330
1F
100
AcDbEntity
  8
0
  6
Continuous
 62
     7
370
    25
100
AcDbLine
 10
110.6212720152909
 20
91.7320892673654
 30
0.0
 11
110.5383992073114
 21
91.7320892673654
 31
0.0
  0
LINE
  5
B78
330
1F
100
AcDbEntity
  8
0
  6
Continuous
 62
     7
370
    25
100
AcDbLine
 10
110.5383992073114
 20
88.73208924128837
 30
0.0
 11
110.6212720152909
 21
88.73208924128837
 31
0.0
  0
LINE
  5
B79
330
1F
100
AcDbEntity
  8
0
  6
Continuous
 62
     7
370
    25
100
AcDbLine
 10
111.0140889761026
 20
91.7320892673654
 30
0.0
 11
110.8176767704065
 21
91.45158934339113
 31
0.0
  0
LINE
  5
B7A
330
1F
100
AcDbEntity
  8
0
  6
Continuous
 62
     7
370
    25
100
AcDbLine
 10
110.8176767704065
 20
89.01258916526264
 30
0.0
 11
111.0140889761026
 21
88.73208924128837
 31
0.0
  0
LINE
  5
B7B
330
1F
100
AcDbEntity
  8
0
  6
Continuous
 62
     7
370
    25
100
AcDbLine
 10
112.0483338710839
 20
91.73208926736547
 30
0.0
 11
111.9654610631044
 21
91.7320892673654
 31
0.0
  0
LINE
  5
B7C
330
1F
100
AcDbEntity
  8
0
  6
Continuous
 62
     7
370
    25
100
AcDbLine
 10
111.9654610631044
 20
88.73208924128837
 30
0.0
 11
112.0483338710839
 21
88.73208924128837
 31
0.0
  0
LINE
  5
B7D
330
1F
100
AcDbEntity
  8
0
  6
Continuous
 62
     7
370
    25
100
AcDbLine
 10
110.5383992073114
 20
91.7320892673654
 30
0.0
 11
110.3419944521959
 21
91.45158934339113
 31
0.0
  0
LINE
  5
B7E
330
1F
100
AcDbEntity
  8
0
  6
Continuous
 62
     7
370
    25
100
AcDbLine
 10
110.3419944521959
 20
89.01258916526264
 30
0.0
 11
110.5383992073114
 21
88.73208924128837
 31
0.0
  0
LINE
  5
B7F
330
1F
100
AcDbEntity
  8
0
  6
Continuous
 62
     7
370
    25
100
AcDbLine
 10
111.0969617840821
 20
91.7320892673654
 30
0.0
 11
111.0140889761026
 21
91.7320892673654
 31
0.0
  0
LINE
  5
B80
330
1F
100
AcDbEntity
  8
0
  6
Continuous
 62
     7
370
    25
100
AcDbLine
 10
111.0140889761026
 20
88.73208924128837
 30
0.0
 11
111.0969617840821
 21
88.73208924128837
 31
0.0
  0
LINE
  5
B81
330
1F
100
AcDbEntity
  8
0
  6
Continuous
 62
     7
370
    25
100
AcDbLine
 10
110.1455822464997
 20
91.7320892673654
 30
0.0
 11
110.0627168891008
 21
91.7320892673654
 31
0.0
  0
LINE
  5
B82
330
1F
100
AcDbEntity
  8
0
  6
Continuous
 62
     7
370
    25
100
AcDbLine
 10
110.0627168891008
 20
88.73208924128837
 30
0.0
 11
110.1455822464997
 21
88.73208924128837
 31
0.0
  0
LINE
  5
B83
330
1F
100
AcDbEntity
  8
0
  6
Continuous
 62
     7
370
    25
100
AcDbLine
 10
110.1455822464997
 20
88.73208924128837
 30
0.0
 11
110.3419944521959
 21
89.01258916526264
 31
0.0
  0
LINE
  5
B84
330
1F
100
AcDbEntity
  8
0
  6
Continuous
 62
     7
370
    25
100
AcDbLine
 10
110.3419944521959
 20
91.45158934339113
 30
0.0
 11
110.1455822464997
 21
91.7320892673654
 31
0.0
  0
LINE
  5
B85
330
1F
100
AcDbEntity
  8
0
  6
Continuous
 62
     7
370
    25
100
AcDbLine
 10
110.0627168891008
 20
91.7320892673654
 30
0.0
 11
109.8663046834047
 21
91.45158934339113
 31
0.0
  0
LINE
  5
B86
330
1F
100
AcDbEntity
  8
0
  6
Continuous
 62
     7
370
    25
100
AcDbLine
 10
109.8663046834047
 20
89.01258916526264
 30
0.0
 11
110.0627168891008
 21
88.73208924128837
 31
0.0
  0
LINE
  5
B87
330
1F
100
AcDbEntity
  8
0
  6
Continuous
 62
     7
370
    25
100
AcDbLine
 10
114.711938786226
 20
91.5783521246834
 30
0.0
 11
114.6231725689943
 21
91.4515893433912
 31
0.0
  0
LINE
  5
B88
330
1F
100
AcDbEntity
  8
0
  6
Continuous
 62
     7
370
    25
100
AcDbLine
 10
114.6231725689943
 20
89.01258916526272
 30
0.0
 11
114.711938786226
 21
88.88582638397052
 31
0.0
  0
LINE
  5
B89
330
1F
100
AcDbEntity
  8
0
  6
Continuous
 62
     7
370
    25
100
AcDbLine
 10
114.711938786226
 20
88.88582638397052
 30
0.0
 11
114.7851258394296
 21
89.01258916526272
 31
0.0
  0
LINE
  5
B8A
330
1F
100
AcDbEntity
  8
0
  6
Continuous
 62
     7
370
    25
100
AcDbLine
 10
114.7851258394296
 20
91.4515893433912
 30
0.0
 11
114.711938786226
 21
91.5783521246834
 31
0.0
  0
LINE
  5
B8B
330
1F
100
AcDbEntity
  8
0
  6
Continuous
 62
     7
370
    25
100
AcDbLine
 10
109.9564783749172
 20
49.41232097633755
 30
0.0
 11
109.7789757427761
 21
49.15882102512395
 31
0.0
  0
LINE
  5
B8C
330
1F
100
AcDbEntity
  8
0
  6
Continuous
 62
     7
370
    25
100
AcDbLine
 10
109.7789757427761
 20
47.1658209834305
 30
0.0
 11
109.9564783749172
 21
46.91232103221691
 31
0.0
  0
LINE
  5
B8D
330
1F
100
AcDbEntity
  8
0
  6
Continuous
 62
     7
370
    25
100
AcDbLine
 10
109.6014731106349
 20
49.41232097633755
 30
0.0
 11
109.518209147174
 21
49.41232097633755
 31
0.0
  0
LINE
  5
B8E
330
1F
100
AcDbEntity
  8
0
  6
Continuous
 62
     7
370
    25
100
AcDbLine
 10
109.518209147174
 20
46.91232103221691
 30
0.0
 11
109.6014731106349
 21
46.91232103221691
 31
0.0
  0
LINE
  5
B8F
330
1F
100
AcDbEntity
  8
0
  6
Continuous
 62
     7
370
    25
100
AcDbLine
 10
109.518209147174
 20
49.41232097633755
 30
0.0
 11
109.3407065150329
 21
49.15882102512395
 31
0.0
  0
LINE
  5
B90
330
1F
100
AcDbEntity
  8
0
  6
Continuous
 62
     7
370
    25
100
AcDbLine
 10
109.3407065150329
 20
47.1658209834305
 30
0.0
 11
109.518209147174
 21
46.91232103221691
 31
0.0
  0
LINE
  5
B91
330
1F
100
AcDbEntity
  8
0
  6
Continuous
 62
     7
370
    25
100
AcDbLine
 10
109.6014731106349
 20
46.91232103221691
 30
0.0
 11
109.7789757427761
 21
47.1658209834305
 31
0.0
  0
LINE
  5
B92
330
1F
100
AcDbEntity
  8
0
  6
Continuous
 62
     7
370
    25
100
AcDbLine
 10
109.7789757427761
 20
49.15882102512395
 30
0.0
 11
109.6014731106349
 21
49.41232097633755
 31
0.0
  0
LINE
  5
B93
330
1F
100
AcDbEntity
  8
0
  6
Continuous
 62
     7
370
    25
100
AcDbLine
 10
109.2851232704703
 20
47.08643795519823
 30
0.0
 11
109.3407065150329
 21
47.1658209834305
 31
0.0
  0
LINE
  5
B94
330
1F
100
AcDbEntity
  8
0
  6
Continuous
 62
     7
370
    25
100
AcDbLine
 10
109.3407065150329
 20
49.15882102512395
 30
0.0
 11
109.2851232704702
 21
49.23820405335629
 31
0.0
  0
LINE
  5
B95
330
1F
100
AcDbEntity
  8
0
  6
Continuous
 62
     7
370
    25
100
AcDbLine
 10
110.0397423383781
 20
49.41232097633755
 30
0.0
 11
109.9564783749172
 21
49.41232097633755
 31
0.0
  0
LINE
  5
B96
330
1F
100
AcDbEntity
  8
0
  6
Continuous
 62
     7
370
    25
100
AcDbLine
 10
109.9564783749172
 20
46.91232103221691
 30
0.0
 11
110.0397423383781
 21
46.91232103221691
 31
0.0
  0
LINE
  5
B97
330
1F
100
AcDbEntity
  8
0
  6
Continuous
 62
     7
370
    25
100
AcDbLine
 10
110.3947476026603
 20
49.41232097633755
 30
0.0
 11
110.2172449705192
 21
49.15882102512395
 31
0.0
  0
LINE
  5
B98
330
1F
100
AcDbEntity
  8
0
  6
Continuous
 62
     7
370
    25
100
AcDbLine
 10
110.2172449705192
 20
47.1658209834305
 30
0.0
 11
110.3947476026603
 21
46.91232103221691
 31
0.0
  0
LINE
  5
B99
330
1F
100
AcDbEntity
  8
0
  6
Continuous
 62
     7
370
    25
100
AcDbLine
 10
111.3545462963172
 20
49.41232097633761
 30
0.0
 11
111.2712823328563
 21
49.41232097633761
 31
0.0
  0
LINE
  5
B9A
330
1F
100
AcDbEntity
  8
0
  6
Continuous
 62
     7
370
    25
100
AcDbLine
 10
111.2712823328563
 20
46.91232103221696
 30
0.0
 11
111.3545462963172
 21
46.91232103221696
 31
0.0
  0
LINE
  5
B9B
330
1F
100
AcDbEntity
  8
0
  6
Continuous
 62
     7
370
    25
100
AcDbLine
 10
111.3545462963172
 20
46.91232103221696
 30
0.0
 11
111.5320489284584
 21
47.16582098343056
 31
0.0
  0
LINE
  5
B9C
330
1F
100
AcDbEntity
  8
0
  6
Continuous
 62
     7
370
    25
100
AcDbLine
 10
111.5320489284584
 20
49.15882102512401
 30
0.0
 11
111.3545462963172
 21
49.41232097633761
 31
0.0
  0
LINE
  5
B9D
330
1F
100
AcDbEntity
  8
0
  6
Continuous
 62
     7
370
    25
100
AcDbLine
 10
110.0397423383781
 20
46.91232103221691
 30
0.0
 11
110.2172449705192
 21
47.1658209834305
 31
0.0
  0
LINE
  5
B9E
330
1F
100
AcDbEntity
  8
0
  6
Continuous
 62
     7
370
    25
100
AcDbLine
 10
110.2172449705192
 20
49.15882102512395
 30
0.0
 11
110.0397423383781
 21
49.41232097633755
 31
0.0
  0
LINE
  5
B9F
330
1F
100
AcDbEntity
  8
0
  6
Continuous
 62
     7
370
    25
100
AcDbLine
 10
110.4780115661212
 20
49.41232097633755
 30
0.0
 11
110.3947476026603
 21
49.41232097633755
 31
0.0
  0
LINE
  5
BA0
330
1F
100
AcDbEntity
  8
0
  6
Continuous
 62
     7
370
    25
100
AcDbLine
 10
110.3947476026603
 20
46.91232103221691
 30
0.0
 11
110.4780115661212
 21
46.91232103221691
 31
0.0
  0
LINE
  5
BA1
330
1F
100
AcDbEntity
  8
0
  6
Continuous
 62
     7
370
    25
100
AcDbLine
 10
111.2712823328563
 20
49.41232097633761
 30
0.0
 11
111.0937797007152
 21
49.15882102512401
 31
0.0
  0
LINE
  5
BA2
330
1F
100
AcDbEntity
  8
0
  6
Continuous
 62
     7
370
    25
100
AcDbLine
 10
111.0937797007152
 20
47.16582098343056
 30
0.0
 11
111.2712823328563
 21
46.91232103221696
 31
0.0
  0
LINE
  5
BA3
330
1F
100
AcDbEntity
  8
0
  6
Continuous
 62
     7
370
    25
100
AcDbLine
 10
110.8330168304035
 20
49.41232097633755
 30
0.0
 11
110.6555141982624
 21
49.15882102512395
 31
0.0
  0
LINE
  5
BA4
330
1F
100
AcDbEntity
  8
0
  6
Continuous
 62
     7
370
    25
100
AcDbLine
 10
110.6555141982624
 20
47.1658209834305
 30
0.0
 11
110.8330168304035
 21
46.91232103221691
 31
0.0
  0
LINE
  5
BA5
330
1F
100
AcDbEntity
  8
0
  6
Continuous
 62
     7
370
    25
100
AcDbLine
 10
110.9162770685741
 20
49.41232097633761
 30
0.0
 11
110.8330168304035
 21
49.41232097633755
 31
0.0
  0
LINE
  5
BA6
330
1F
100
AcDbEntity
  8
0
  6
Continuous
 62
     7
370
    25
100
AcDbLine
 10
110.8330168304035
 20
46.91232103221691
 30
0.0
 11
110.9162770685741
 21
46.91232103221696
 31
0.0
  0
LINE
  5
BA7
330
1F
100
AcDbEntity
  8
0
  6
Continuous
 62
     7
370
    25
100
AcDbLine
 10
110.4780115661212
 20
46.91232103221691
 30
0.0
 11
110.6555141982624
 21
47.1658209834305
 31
0.0
  0
LINE
  5
BA8
330
1F
100
AcDbEntity
  8
0
  6
Continuous
 62
     7
370
    25
100
AcDbLine
 10
110.6555141982624
 20
49.15882102512395
 30
0.0
 11
110.4780115661212
 21
49.41232097633755
 31
0.0
  0
LINE
  5
BA9
330
1F
100
AcDbEntity
  8
0
  6
Continuous
 62
     7
370
    25
100
AcDbLine
 10
111.7095515605995
 20
49.41232097633761
 30
0.0
 11
111.5320489284584
 21
49.15882102512401
 31
0.0
  0
LINE
  5
BAA
330
1F
100
AcDbEntity
  8
0
  6
Continuous
 62
     7
370
    25
100
AcDbLine
 10
111.5320489284584
 20
47.16582098343056
 30
0.0
 11
111.7095515605995
 21
46.91232103221696
 31
0.0
  0
LINE
  5
BAB
330
1F
100
AcDbEntity
  8
0
  6
Continuous
 62
     7
370
    25
100
AcDbLine
 10
110.9162770685741
 20
46.91232103221696
 30
0.0
 11
111.0937797007152
 21
47.16582098343056
 31
0.0
  0
LINE
  5
BAC
330
1F
100
AcDbEntity
  8
0
  6
Continuous
 62
     7
370
    25
100
AcDbLine
 10
111.0937797007152
 20
49.15882102512401
 30
0.0
 11
110.9162770685741
 21
49.41232097633761
 31
0.0
  0
LINE
  5
BAD
330
1F
100
AcDbEntity
  8
0
  6
Continuous
 62
     7
370
    25
100
AcDbLine
 10
112.5860900160858
 20
49.41232097633761
 30
0.0
 11
112.4085873839447
 21
49.15882102512401
 31
0.0
  0
LINE
  5
BAE
330
1F
100
AcDbEntity
  8
0
  6
Continuous
 62
     7
370
    25
100
AcDbLine
 10
112.4085873839447
 20
47.16582098343056
 30
0.0
 11
112.5860900160858
 21
46.91232103221696
 31
0.0
  0
LINE
  5
BAF
330
1F
100
AcDbEntity
  8
0
  6
Continuous
 62
     7
370
    25
100
AcDbLine
 10
113.0243592438289
 20
49.41232097633761
 30
0.0
 11
112.8468566116878
 21
49.15882102512401
 31
0.0
  0
LINE
  5
BB0
330
1F
100
AcDbEntity
  8
0
  6
Continuous
 62
     7
370
    25
100
AcDbLine
 10
112.8468566116878
 20
47.16582098343056
 30
0.0
 11
113.0243592438289
 21
46.91232103221696
 31
0.0
  0
LINE
  5
BB1
330
1F
100
AcDbEntity
  8
0
  6
Continuous
 62
     7
370
    25
100
AcDbLine
 10
112.6693539795467
 20
49.41232097633761
 30
0.0
 11
112.5860900160858
 21
49.41232097633761
 31
0.0
  0
LINE
  5
BB2
330
1F
100
AcDbEntity
  8
0
  6
Continuous
 62
     7
370
    25
100
AcDbLine
 10
112.5860900160858
 20
46.91232103221696
 30
0.0
 11
112.6693539795467
 21
46.91232103221696
 31
0.0
  0
LINE
  5
BB3
330
1F
100
AcDbEntity
  8
0
  6
Continuous
 62
     7
370
    25
100
AcDbLine
 10
111.7928155240604
 20
49.41232097633761
 30
0.0
 11
111.7095515605995
 21
49.41232097633761
 31
0.0
  0
LINE
  5
BB4
330
1F
100
AcDbEntity
  8
0
  6
Continuous
 62
     7
370
    25
100
AcDbLine
 10
111.7095515605995
 20
46.91232103221696
 30
0.0
 11
111.7928155240604
 21
46.91232103221696
 31
0.0
  0
LINE
  5
BB5
330
1F
100
AcDbEntity
  8
0
  6
Continuous
 62
     7
370
    25
100
AcDbLine
 10
112.2310847518035
 20
49.41232097633761
 30
0.0
 11
112.1478207883426
 21
49.41232097633761
 31
0.0
  0
LINE
  5
BB6
330
1F
100
AcDbEntity
  8
0
  6
Continuous
 62
     7
370
    25
100
AcDbLine
 10
112.1478207883426
 20
46.91232103221696
 30
0.0
 11
112.2310847518035
 21
46.91232103221696
 31
0.0
  0
LINE
  5
BB7
330
1F
100
AcDbEntity
  8
0
  6
Continuous
 62
     7
370
    25
100
AcDbLine
 10
112.1478207883426
 20
49.41232097633761
 30
0.0
 11
111.9703181562015
 21
49.15882102512401
 31
0.0
  0
LINE
  5
BB8
330
1F
100
AcDbEntity
  8
0
  6
Continuous
 62
     7
370
    25
100
AcDbLine
 10
111.9703181562015
 20
47.16582098343056
 30
0.0
 11
112.1478207883426
 21
46.91232103221696
 31
0.0
  0
LINE
  5
BB9
330
1F
100
AcDbEntity
  8
0
  6
Continuous
 62
     7
370
    25
100
AcDbLine
 10
111.7928155240604
 20
46.91232103221696
 30
0.0
 11
111.9703181562015
 21
47.16582098343056
 31
0.0
  0
LINE
  5
BBA
330
1F
100
AcDbEntity
  8
0
  6
Continuous
 62
     7
370
    25
100
AcDbLine
 10
111.9703181562015
 20
49.15882102512401
 30
0.0
 11
111.7928155240604
 21
49.41232097633761
 31
0.0
  0
LINE
  5
BBB
330
1F
100
AcDbEntity
  8
0
  6
Continuous
 62
     7
370
    25
100
AcDbLine
 10
112.6693539795467
 20
46.91232103221696
 30
0.0
 11
112.8468566116878
 21
47.16582098343056
 31
0.0
  0
LINE
  5
BBC
330
1F
100
AcDbEntity
  8
0
  6
Continuous
 62
     7
370
    25
100
AcDbLine
 10
112.8468566116878
 20
49.15882102512401
 30
0.0
 11
112.6693539795467
 21
49.41232097633761
 31
0.0
  0
LINE
  5
BBD
330
1F
100
AcDbEntity
  8
0
  6
Continuous
 62
     7
370
    25
100
AcDbLine
 10
113.1076232072898
 20
49.41232097633761
 30
0.0
 11
113.0243592438289
 21
49.41232097633761
 31
0.0
  0
LINE
  5
BBE
330
1F
100
AcDbEntity
  8
0
  6
Continuous
 62
     7
370
    25
100
AcDbLine
 10
113.0243592438289
 20
46.91232103221696
 30
0.0
 11
113.1076232072898
 21
46.91232103221696
 31
0.0
  0
LINE
  5
BBF
330
1F
100
AcDbEntity
  8
0
  6
Continuous
 62
     7
370
    25
100
AcDbLine
 10
113.1076232072898
 20
46.91232103221696
 30
0.0
 11
113.285125839431
 21
47.16582098343056
 31
0.0
  0
LINE
  5
BC0
330
1F
100
AcDbEntity
  8
0
  6
Continuous
 62
     7
370
    25
100
AcDbLine
 10
113.285125839431
 20
49.15882102512401
 30
0.0
 11
113.1076232072898
 21
49.41232097633761
 31
0.0
  0
LINE
  5
BC1
330
1F
100
AcDbEntity
  8
0
  6
Continuous
 62
     7
370
    25
100
AcDbLine
 10
112.2310847518035
 20
46.91232103221696
 30
0.0
 11
112.4085873839447
 21
47.16582098343056
 31
0.0
  0
LINE
  5
BC2
330
1F
100
AcDbEntity
  8
0
  6
Continuous
 62
     7
370
    25
100
AcDbLine
 10
112.4085873839447
 20
49.15882102512401
 30
0.0
 11
112.2310847518035
 21
49.41232097633761
 31
0.0
  0
LINE
  5
BC3
330
1F
100
AcDbEntity
  8
0
  6
Continuous
 62
     7
370
    25
100
AcDbLine
 10
113.5458887097427
 20
49.41232097633761
 30
0.0
 11
113.4626284715721
 21
49.41232097633761
 31
0.0
  0
LINE
  5
BC4
330
1F
100
AcDbEntity
  8
0
  6
Continuous
 62
     7
370
    25
100
AcDbLine
 10
113.9612603900019
 20
49.41232097633761
 30
0.0
 11
113.877996426541
 21
49.41232097633761
 31
0.0
  0
ARC
  5
BC5
102
{ACAD_REACTORS
330
C61
102
}
330
1F
100
AcDbEntity
  8
0
  6
Continuous
 62
     7
370
    25
100
AcDbCircle
 10
88.28512238236021
 20
90.23208923768377
 30
0.0
 40
6.000000000000122
100
AcDbArc
 50
48.59037789073006
 51
90.0
  0
ARC
  5
BC6
102
{ACAD_REACTORS
330
C61
102
}
330
1F
100
AcDbEntity
  8
0
  6
Continuous
 62
     7
370
    25
100
AcDbCircle
 10
88.28512238236021
 20
90.23208923768377
 30
0.0
 40
6.000000000000127
100
AcDbArc
 50
270.0
 51
311.4096221092769
  0
ARC
  5
BC7
102
{ACAD_REACTORS
330
C6C
102
}
330
1F
100
AcDbEntity
  8
0
  6
Continuous
 62
     7
370
    25
100
AcDbCircle
 10
88.28512238236021
 20
90.23208923768377
 30
0.0
 40
6.000000000000014
100
AcDbArc
 50
90.0
 51
270.0
  0
ARC
  5
BC8
330
1F
100
AcDbEntity
  8
0
  6
Continuous
 62
     7
370
    25
100
AcDbCircle
 10
105.5351223823602
 20
94.23208923768394
 30
0.0
 40
0.75
100
AcDbArc
 50
270.0
 51
0.0000000000065138
  0
ARC
  5
BC9
330
1F
100
AcDbEntity
  8
0
  6
Continuous
 62
     7
370
    25
100
AcDbCircle
 10
105.5351223823602
 20
86.23208923768393
 30
0.0
 40
0.75
100
AcDbArc
 50
359.9999999999968
 51
90.0
  0
LINE
  5
BCA
330
1F
100
AcDbEntity
  8
0
  6
Continuous
 62
     7
370
    25
100
AcDbLine
 10
106.2851245281274
 20
86.23208918075235
 30
0.0
 11
108.2851211306627
 21
86.2320891807524
 31
0.0
  0
LINE
  5
BCB
330
1F
100
AcDbEntity
  8
0
  6
Continuous
 62
     7
370
    25
100
AcDbLine
 10
108.2851211306627
 20
94.23208967714733
 30
0.0
 11
106.2851245281274
 21
94.23208967714728
 31
0.0
  0
LINE
  5
BCC
330
1F
100
AcDbEntity
  8
0
  6
Continuous
 62
     7
370
    25
100
AcDbLine
 10
108.2851211306627
 20
86.2320891807524
 30
0.0
 11
109.2851231572206
 21
87.23208922824985
 31
0.0
  0
LINE
  5
BCD
330
1F
100
AcDbEntity
  8
0
  6
Continuous
 62
     7
370
    25
100
AcDbLine
 10
109.2851231572206
 20
93.23208951323456
 30
0.0
 11
108.2851211306627
 21
94.23208967714733
 31
0.0
  0
LINE
  5
BCE
330
1F
100
AcDbEntity
  8
0
  6
Continuous
 62
     7
370
    25
100
AcDbLine
 10
95.56093763084959
 20
86.9820891872715
 30
0.0
 11
105.5351192829186
 21
86.98208918727161
 31
0.0
  0
LINE
  5
BCF
330
1F
100
AcDbEntity
  8
0
  6
Continuous
 62
     7
370
    25
100
AcDbLine
 10
105.5351192829186
 20
93.48208908855141
 30
0.0
 11
95.56093763084959
 21
93.48208908855131
 31
0.0
  0
ARC
  5
BD0
330
1F
100
AcDbEntity
  8
0
  6
Continuous
 62
     7
370
    25
100
AcDbCircle
 10
95.56093848778813
 20
98.48208923768389
 30
0.0
 40
5.0
100
AcDbArc
 50
228.5903778907306
 51
270.0
  0
ARC
  5
BD1
330
1F
100
AcDbEntity
  8
0
  6
Continuous
 62
     7
370
    25
100
AcDbCircle
 10
95.56093848778823
 20
81.98208923768389
 30
0.0
 40
5.0
100
AcDbArc
 50
90.0
 51
131.4096221092769
  0
ARC
  5
BD2
330
1F
100
AcDbEntity
  8
0
  6
Continuous
 62
     7
370
    25
100
AcDbCircle
 10
88.28512238236113
 20
48.16232102091991
 30
0.0
 40
6.000000000000014
100
AcDbArc
 50
90.0
 51
270.0
  0
ARC
  5
BD3
330
1F
100
AcDbEntity
  8
0
  6
Continuous
 62
     7
370
    25
100
AcDbCircle
 10
88.28512238236113
 20
48.16232102091991
 30
0.0
 40
6.000000000000149
100
AcDbArc
 50
48.59037789073062
 51
90.0
  0
ARC
  5
BD4
330
1F
100
AcDbEntity
  8
0
  6
Continuous
 62
     7
370
    25
100
AcDbCircle
 10
88.28512238236113
 20
48.16232102091991
 30
0.0
 40
6.000000000000152
100
AcDbArc
 50
270.0
 51
311.4096221092705
  0
ARC
  5
BD5
330
1F
100
AcDbEntity
  8
0
  6
Continuous
 62
     7
370
    25
100
AcDbCircle
 10
105.535122382361
 20
52.16232102092007
 30
0.0
 40
0.75
100
AcDbArc
 50
270.0
 51
0.0000000000065138
  0
ARC
  5
BD6
330
1F
100
AcDbEntity
  8
0
  6
Continuous
 62
     7
370
    25
100
AcDbCircle
 10
105.5351223823611
 20
44.16232102092013
 30
0.0
 40
0.75
100
AcDbArc
 50
359.9999999999935
 51
90.0
  0
LINE
  5
BD7
330
1F
100
AcDbEntity
  8
0
  6
Continuous
 62
     7
370
    25
100
AcDbLine
 10
106.2851209160868
 20
44.16232058145678
 30
0.0
 11
108.2851212439124
 21
44.16232058145678
 31
0.0
  0
LINE
  5
BD8
330
1F
100
AcDbEntity
  8
0
  6
Continuous
 62
     7
370
    25
100
AcDbLine
 10
108.2851212439124
 20
44.16232058145678
 30
0.0
 11
109.2851232704703
 21
45.16232074536955
 31
0.0
  0
LINE
  5
BD9
330
1F
100
AcDbEntity
  8
0
  6
Continuous
 62
     7
370
    25
100
AcDbLine
 10
109.2851232704703
 20
51.16232103035426
 30
0.0
 11
108.2851212439124
 21
52.16232107785171
 31
0.0
  0
LINE
  5
BDA
330
1F
100
AcDbEntity
  8
0
  6
Continuous
 62
     7
370
    25
100
AcDbLine
 10
108.2851212439124
 20
52.16232107785171
 30
0.0
 11
106.2851209160868
 21
52.16232107785166
 31
0.0
  0
LINE
  5
BDB
330
1F
100
AcDbEntity
  8
0
  6
Continuous
 62
     7
370
    25
100
AcDbLine
 10
95.5609377440993
 20
44.91232117005248
 30
0.0
 11
105.5351231214587
 21
44.91232117005259
 31
0.0
  0
LINE
  5
BDC
330
1F
100
AcDbEntity
  8
0
  6
Continuous
 62
     7
370
    25
100
AcDbLine
 10
105.5351231214587
 20
51.4123210713324
 30
0.0
 11
95.5609377440993
 21
51.41232107133228
 31
0.0
  0
ARC
  5
BDD
330
1F
100
AcDbEntity
  8
0
  6
Continuous
 62
     7
370
    25
100
AcDbCircle
 10
95.56093848778903
 20
56.41232102092001
 30
0.0
 40
5.0
100
AcDbArc
 50
228.5903778907306
 51
270.0
  0
ARC
  5
BDE
330
1F
100
AcDbEntity
  8
0
  6
Continuous
 62
     7
370
    25
100
AcDbCircle
 10
95.56093848778926
 20
39.91232102092002
 30
0.0
 40
5.0
100
AcDbArc
 50
90.0
 51
131.4096221092704
  0
LINE
  5
BDF
330
1F
100
AcDbEntity
  8
0
  6
Continuous
 62
     7
370
    25
100
AcDbLine
 10
114.1474902507837
 20
91.4515893433912
 30
0.0
 11
114.1474902507837
 21
89.01258916526272
 31
0.0
  0
LINE
  5
BE0
330
1F
100
AcDbEntity
  8
0
  6
Continuous
 62
     7
370
    25
100
AcDbLine
 10
114.3438950058992
 20
91.73208926736547
 30
0.0
 11
114.3438950058992
 21
88.73208924128844
 31
0.0
  0
LINE
  5
BE1
330
1F
100
AcDbEntity
  8
0
  6
Continuous
 62
     7
370
    25
100
AcDbLine
 10
114.4267678138787
 20
91.73208926736547
 30
0.0
 11
114.4267678138787
 21
88.73208924128844
 31
0.0
  0
LINE
  5
BE2
330
1F
100
AcDbEntity
  8
0
  6
Continuous
 62
     7
370
    25
100
AcDbLine
 10
114.6231725689943
 20
91.4515893433912
 30
0.0
 11
114.6231725689943
 21
89.01258916526272
 31
0.0
  0
LINE
  5
BE3
330
1F
100
AcDbEntity
  8
0
  6
Continuous
 62
     7
370
    25
100
AcDbLine
 10
113.9510780450875
 20
91.73208926736547
 30
0.0
 11
113.9510780450875
 21
88.73208924128844
 31
0.0
  0
LINE
  5
BE4
330
1F
100
AcDbEntity
  8
0
  6
Continuous
 62
     7
370
    25
100
AcDbLine
 10
113.8682126876886
 20
91.73208926736547
 30
0.0
 11
113.8682126876886
 21
88.73208924128844
 31
0.0
  0
LINE
  5
BE5
330
1F
100
AcDbEntity
  8
0
  6
Continuous
 62
     7
370
    25
100
AcDbLine
 10
113.6718004819925
 20
91.4515893433912
 30
0.0
 11
113.6718004819925
 21
89.01258916526272
 31
0.0
  0
LINE
  5
BE6
330
1F
100
AcDbEntity
  8
0
  6
Continuous
 62
     7
370
    25
100
AcDbLine
 10
113.4753957268769
 20
91.73208926736547
 30
0.0
 11
113.4753957268769
 21
88.73208924128844
 31
0.0
  0
LINE
  5
BE7
330
1F
100
AcDbEntity
  8
0
  6
Continuous
 62
     7
370
    25
100
AcDbLine
 10
112.5240161892945
 20
91.73208926736547
 30
0.0
 11
112.5240161892945
 21
88.73208924128844
 31
0.0
  0
LINE
  5
BE8
330
1F
100
AcDbEntity
  8
0
  6
Continuous
 62
     7
370
    25
100
AcDbLine
 10
112.7204283949907
 20
91.4515893433912
 30
0.0
 11
112.7204283949907
 21
89.01258916526272
 31
0.0
  0
LINE
  5
BE9
330
1F
100
AcDbEntity
  8
0
  6
Continuous
 62
     7
370
    25
100
AcDbLine
 10
113.3925229188974
 20
91.73208926736547
 30
0.0
 11
113.3925229188974
 21
88.73208924128844
 31
0.0
  0
LINE
  5
BEA
330
1F
100
AcDbEntity
  8
0
  6
Continuous
 62
     7
370
    25
100
AcDbLine
 10
112.9168331501062
 20
91.73208926736547
 30
0.0
 11
112.9168331501062
 21
88.73208924128844
 31
0.0
  0
LINE
  5
BEB
330
1F
100
AcDbEntity
  8
0
  6
Continuous
 62
     7
370
    25
100
AcDbLine
 10
112.4411508318956
 20
91.73208926736547
 30
0.0
 11
112.4411508318956
 21
88.73208924128844
 31
0.0
  0
LINE
  5
BEC
330
1F
100
AcDbEntity
  8
0
  6
Continuous
 62
     7
370
    25
100
AcDbLine
 10
112.2447386261995
 20
91.4515893433912
 30
0.0
 11
112.2447386261995
 21
89.01258916526272
 31
0.0
  0
LINE
  5
BED
330
1F
100
AcDbEntity
  8
0
  6
Continuous
 62
     7
370
    25
100
AcDbLine
 10
112.9997059580857
 20
91.73208926736547
 30
0.0
 11
112.9997059580857
 21
88.73208924128844
 31
0.0
  0
LINE
  5
BEE
330
1F
100
AcDbEntity
  8
0
  6
Continuous
 62
     7
370
    25
100
AcDbLine
 10
113.1961181637819
 20
91.4515893433912
 30
0.0
 11
113.1961181637819
 21
89.01258916526272
 31
0.0
  0
LINE
  5
BEF
330
1F
100
AcDbEntity
  8
0
  6
Continuous
 62
     7
370
    25
100
AcDbLine
 10
112.0483338710839
 20
91.73208926736547
 30
0.0
 11
112.0483338710839
 21
88.73208924128837
 31
0.0
  0
LINE
  5
BF0
330
1F
100
AcDbEntity
  8
0
  6
Continuous
 62
     7
370
    25
100
AcDbLine
 10
111.5726441022927
 20
91.7320892673654
 30
0.0
 11
111.5726441022927
 21
88.73208924128837
 31
0.0
  0
LINE
  5
BF1
330
1F
100
AcDbEntity
  8
0
  6
Continuous
 62
     7
370
    25
100
AcDbLine
 10
111.4897712943132
 20
91.7320892673654
 30
0.0
 11
111.4897712943132
 21
88.73208924128837
 31
0.0
  0
LINE
  5
BF2
330
1F
100
AcDbEntity
  8
0
  6
Continuous
 62
     7
370
    25
100
AcDbLine
 10
110.6212720152909
 20
91.7320892673654
 30
0.0
 11
110.6212720152909
 21
88.73208924128837
 31
0.0
  0
LINE
  5
BF3
330
1F
100
AcDbEntity
  8
0
  6
Continuous
 62
     7
370
    25
100
AcDbLine
 10
110.8176767704065
 20
91.45158934339113
 30
0.0
 11
110.8176767704065
 21
89.01258916526264
 31
0.0
  0
LINE
  5
BF4
330
1F
100
AcDbEntity
  8
0
  6
Continuous
 62
     7
370
    25
100
AcDbLine
 10
111.2933665391977
 20
91.45158934339113
 30
0.0
 11
111.2933665391977
 21
89.01258916526264
 31
0.0
  0
LINE
  5
BF5
330
1F
100
AcDbEntity
  8
0
  6
Continuous
 62
     7
370
    25
100
AcDbLine
 10
111.0969617840821
 20
91.7320892673654
 30
0.0
 11
111.0969617840821
 21
88.73208924128837
 31
0.0
  0
LINE
  5
BF6
330
1F
100
AcDbEntity
  8
0
  6
Continuous
 62
     7
370
    25
100
AcDbLine
 10
111.7690563079889
 20
91.45158934339113
 30
0.0
 11
111.7690563079889
 21
89.01258916526264
 31
0.0
  0
LINE
  5
BF7
330
1F
100
AcDbEntity
  8
0
  6
Continuous
 62
     7
370
    25
100
AcDbLine
 10
111.9654610631044
 20
91.7320892673654
 30
0.0
 11
111.9654610631044
 21
88.73208924128837
 31
0.0
  0
LINE
  5
BF8
330
1F
100
AcDbEntity
  8
0
  6
Continuous
 62
     7
370
    25
100
AcDbLine
 10
110.5383992073114
 20
91.7320892673654
 30
0.0
 11
110.5383992073114
 21
88.73208924128837
 31
0.0
  0
LINE
  5
BF9
330
1F
100
AcDbEntity
  8
0
  6
Continuous
 62
     7
370
    25
100
AcDbLine
 10
111.0140889761026
 20
91.7320892673654
 30
0.0
 11
111.0140889761026
 21
88.73208924128837
 31
0.0
  0
LINE
  5
BFA
330
1F
100
AcDbEntity
  8
0
  6
Continuous
 62
     7
370
    25
100
AcDbLine
 10
110.3419944521959
 20
91.45158934339113
 30
0.0
 11
110.3419944521959
 21
89.01258916526264
 31
0.0
  0
LINE
  5
BFB
330
1F
100
AcDbEntity
  8
0
  6
Continuous
 62
     7
370
    25
100
AcDbLine
 10
109.8663046834047
 20
91.45158934339113
 30
0.0
 11
109.8663046834047
 21
89.01258916526264
 31
0.0
  0
LINE
  5
BFC
330
1F
100
AcDbEntity
  8
0
  6
Continuous
 62
     7
370
    25
100
AcDbLine
 10
110.1455822464997
 20
91.7320892673654
 30
0.0
 11
110.1455822464997
 21
88.73208924128837
 31
0.0
  0
LINE
  5
BFD
330
1F
100
AcDbEntity
  8
0
  6
Continuous
 62
     7
370
    25
100
AcDbLine
 10
110.0627168891008
 20
91.7320892673654
 30
0.0
 11
110.0627168891008
 21
88.73208924128837
 31
0.0
  0
LINE
  5
BFE
330
1F
100
AcDbEntity
  8
0
  6
Continuous
 62
     7
370
    25
100
AcDbLine
 10
114.711938786226
 20
88.88582638397052
 30
0.0
 11
114.711938786226
 21
91.5783521246834
 31
0.0
  0
LINE
  5
BFF
102
{ACAD_REACTORS
330
C69
330
C6C
102
}
330
1F
100
AcDbEntity
  8
0
  6
Continuous
 62
     7
370
    25
100
AcDbLine
 10
114.7851258394296
 20
91.4515893433912
 30
0.0
 11
114.7851258394296
 21
89.01258916526272
 31
0.0
  0
LINE
  5
C00
330
1F
100
AcDbEntity
  8
0
  6
Continuous
 62
     7
370
    25
100
AcDbLine
 10
109.7789757427761
 20
49.15882102512395
 30
0.0
 11
109.7789757427761
 21
47.1658209834305
 31
0.0
  0
LINE
  5
C01
330
1F
100
AcDbEntity
  8
0
  6
Continuous
 62
     7
370
    25
100
AcDbLine
 10
109.9564783749172
 20
49.41232097633755
 30
0.0
 11
109.9564783749172
 21
46.91232103221691
 31
0.0
  0
LINE
  5
C02
330
1F
100
AcDbEntity
  8
0
  6
Continuous
 62
     7
370
    25
100
AcDbLine
 10
109.6014731106349
 20
49.41232097633755
 30
0.0
 11
109.6014731106349
 21
46.91232103221691
 31
0.0
  0
LINE
  5
C03
330
1F
100
AcDbEntity
  8
0
  6
Continuous
 62
     7
370
    25
100
AcDbLine
 10
109.518209147174
 20
49.41232097633755
 30
0.0
 11
109.518209147174
 21
46.91232103221691
 31
0.0
  0
LINE
  5
C04
330
1F
100
AcDbEntity
  8
0
  6
Continuous
 62
     7
370
    25
100
AcDbLine
 10
109.3407065150329
 20
49.15882102512395
 30
0.0
 11
109.3407065150329
 21
47.1658209834305
 31
0.0
  0
LINE
  5
C05
330
1F
100
AcDbEntity
  8
0
  6
Continuous
 62
     7
370
    25
100
AcDbLine
 10
110.0397423383781
 20
49.41232097633755
 30
0.0
 11
110.0397423383781
 21
46.91232103221691
 31
0.0
  0
LINE
  5
C06
330
1F
100
AcDbEntity
  8
0
  6
Continuous
 62
     7
370
    25
100
AcDbLine
 10
110.2172449705192
 20
49.15882102512395
 30
0.0
 11
110.2172449705192
 21
47.1658209834305
 31
0.0
  0
LINE
  5
C07
330
1F
100
AcDbEntity
  8
0
  6
Continuous
 62
     7
370
    25
100
AcDbLine
 10
110.3947476026603
 20
49.41232097633755
 30
0.0
 11
110.3947476026603
 21
46.91232103221691
 31
0.0
  0
LINE
  5
C08
330
1F
100
AcDbEntity
  8
0
  6
Continuous
 62
     7
370
    25
100
AcDbLine
 10
111.3545462963172
 20
49.41232097633761
 30
0.0
 11
111.3545462963172
 21
46.91232103221696
 31
0.0
  0
LINE
  5
C09
330
1F
100
AcDbEntity
  8
0
  6
Continuous
 62
     7
370
    25
100
AcDbLine
 10
111.2712823328563
 20
49.41232097633761
 30
0.0
 11
111.2712823328563
 21
46.91232103221696
 31
0.0
  0
LINE
  5
C0A
330
1F
100
AcDbEntity
  8
0
  6
Continuous
 62
     7
370
    25
100
AcDbLine
 10
111.5320489284584
 20
49.15882102512401
 30
0.0
 11
111.5320489284584
 21
47.16582098343056
 31
0.0
  0
LINE
  5
C0B
330
1F
100
AcDbEntity
  8
0
  6
Continuous
 62
     7
370
    25
100
AcDbLine
 10
110.4780115661212
 20
49.41232097633755
 30
0.0
 11
110.4780115661212
 21
46.91232103221691
 31
0.0
  0
LINE
  5
C0C
330
1F
100
AcDbEntity
  8
0
  6
Continuous
 62
     7
370
    25
100
AcDbLine
 10
111.0937797007152
 20
49.15882102512401
 30
0.0
 11
111.0937797007152
 21
47.16582098343056
 31
0.0
  0
LINE
  5
C0D
330
1F
100
AcDbEntity
  8
0
  6
Continuous
 62
     7
370
    25
100
AcDbLine
 10
110.6555141982624
 20
49.15882102512395
 30
0.0
 11
110.6555141982624
 21
47.1658209834305
 31
0.0
  0
LINE
  5
C0E
330
1F
100
AcDbEntity
  8
0
  6
Continuous
 62
     7
370
    25
100
AcDbLine
 10
110.8330168304035
 20
49.41232097633755
 30
0.0
 11
110.8330168304035
 21
46.91232103221691
 31
0.0
  0
LINE
  5
C0F
330
1F
100
AcDbEntity
  8
0
  6
Continuous
 62
     7
370
    25
100
AcDbLine
 10
110.9162770685741
 20
49.41232097633761
 30
0.0
 11
110.9162770685741
 21
46.91232103221696
 31
0.0
  0
LINE
  5
C10
330
1F
100
AcDbEntity
  8
0
  6
Continuous
 62
     7
370
    25
100
AcDbLine
 10
111.7095515605995
 20
49.41232097633761
 30
0.0
 11
111.7095515605995
 21
46.91232103221696
 31
0.0
  0
LINE
  5
C11
330
1F
100
AcDbEntity
  8
0
  6
Continuous
 62
     7
370
    25
100
AcDbLine
 10
112.4085873839447
 20
49.15882102512401
 30
0.0
 11
112.4085873839447
 21
47.16582098343056
 31
0.0
  0
LINE
  5
C12
330
1F
100
AcDbEntity
  8
0
  6
Continuous
 62
     7
370
    25
100
AcDbLine
 10
112.5860900160858
 20
49.41232097633761
 30
0.0
 11
112.5860900160858
 21
46.91232103221696
 31
0.0
  0
LINE
  5
C13
330
1F
100
AcDbEntity
  8
0
  6
Continuous
 62
     7
370
    25
100
AcDbLine
 10
112.8468566116878
 20
49.15882102512401
 30
0.0
 11
112.8468566116878
 21
47.16582098343056
 31
0.0
  0
LINE
  5
C14
330
1F
100
AcDbEntity
  8
0
  6
Continuous
 62
     7
370
    25
100
AcDbLine
 10
113.0243592438289
 20
49.41232097633761
 30
0.0
 11
113.0243592438289
 21
46.91232103221696
 31
0.0
  0
LINE
  5
C15
330
1F
100
AcDbEntity
  8
0
  6
Continuous
 62
     7
370
    25
100
AcDbLine
 10
112.6693539795467
 20
49.41232097633761
 30
0.0
 11
112.6693539795467
 21
46.91232103221696
 31
0.0
  0
LINE
  5
C16
330
1F
100
AcDbEntity
  8
0
  6
Continuous
 62
     7
370
    25
100
AcDbLine
 10
111.7928155240604
 20
49.41232097633761
 30
0.0
 11
111.7928155240604
 21
46.91232103221696
 31
0.0
  0
LINE
  5
C17
330
1F
100
AcDbEntity
  8
0
  6
Continuous
 62
     7
370
    25
100
AcDbLine
 10
112.2310847518035
 20
49.41232097633761
 30
0.0
 11
112.2310847518035
 21
46.91232103221696
 31
0.0
  0
LINE
  5
C18
330
1F
100
AcDbEntity
  8
0
  6
Continuous
 62
     7
370
    25
100
AcDbLine
 10
112.1478207883426
 20
49.41232097633761
 30
0.0
 11
112.1478207883426
 21
46.91232103221696
 31
0.0
  0
LINE
  5
C19
330
1F
100
AcDbEntity
  8
0
  6
Continuous
 62
     7
370
    25
100
AcDbLine
 10
111.9703181562015
 20
49.15882102512401
 30
0.0
 11
111.9703181562015
 21
47.16582098343056
 31
0.0
  0
LINE
  5
C1A
330
1F
100
AcDbEntity
  8
0
  6
Continuous
 62
     7
370
    25
100
AcDbLine
 10
113.285125839431
 20
49.15882102512401
 30
0.0
 11
113.285125839431
 21
47.16582098343056
 31
0.0
  0
LINE
  5
C1B
330
1F
100
AcDbEntity
  8
0
  6
Continuous
 62
     7
370
    25
100
AcDbLine
 10
113.1076232072898
 20
49.41232097633761
 30
0.0
 11
113.1076232072898
 21
46.91232103221696
 31
0.0
  0
SPLINE
  5
C1C
330
1F
100
AcDbEntity
  8
0
  6
Continuous
 62
     7
370
    25
100
AcDbSpline
210
0.0
220
0.0
230
1.0
 70
     8
 71
     3
 72
    17
 73
    13
 74
     0
 42
0.0000000001
 43
0.0000000001
 40
0.0
 40
0.0
 40
0.0
 40
0.0
 40
0.1073724017035431
 40
0.2147449157306424
 40
0.3221174819154919
 40
0.4294897921900283
 40
0.5368622800084653
 40
0.6442346659380178
 40
0.751607185551876
 40
0.8589796995835959
 40
0.9663519950700134
 40
1.0
 40
1.0
 40
1.0
 40
1.0
 10
88.28512169094722
 20
44.46348236240996
 30
0.0
 10
87.86919446967784
 20
44.50437840130061
 30
0.0
 10
87.0373395920326
 20
44.58617052186369
 30
0.0
 10
85.93023533504345
 20
45.22378009552423
 30
0.0
 10
85.08862408374955
 20
46.16275033286112
 30
0.0
 10
84.60739978652531
 20
47.3351649674195
 30
0.0
 10
84.54082102454322
 20
48.5987545053882
 30
0.0
 10
84.89631126307893
 20
49.81344161921132
 30
0.0
 10
85.63412665801331
 20
50.84285794304768
 30
0.0
 10
86.66986926790889
 20
51.56623197006521
 30
0.0
 10
87.61171559834066
 20
51.83925587159482
 30
0.0
 10
88.1553971168239
 20
51.8569400212414
 30
0.0
 10
88.28512169094722
 20
51.86115952972873
 30
0.0
  0
SPLINE
  5
C1D
330
1F
100
AcDbEntity
  8
0
  6
Continuous
 62
     7
370
    25
100
AcDbSpline
210
0.0
220
0.0
230
1.0
 70
     8
 71
     3
 72
    17
 73
    13
 74
     0
 42
0.0000000001
 43
0.0000000001
 40
0.0
 40
0.0
 40
0.0
 40
0.0
 40
0.1073723623919691
 40
0.2147448453654206
 40
0.3221173756180298
 40
0.4294897724065577
 40
0.5368622242927806
 40
0.6442346647583685
 40
0.7516069607581862
 40
0.8589794504108258
 40
0.9663520036827453
 40
1.0
 40
1.0
 40
1.0
 40
1.0
 10
88.28512169094722
 20
51.86115952972873
 30
0.0
 10
88.70104889602373
 20
51.8202635847285
 30
0.0
 10
89.53290377327187
 20
51.73847164880098
 30
0.0
 10
90.64000830774251
 20
51.10086202093194
 30
0.0
 10
91.48161851617329
 20
50.16189079227004
 30
0.0
 10
91.96284802665411
 20
48.98947811771532
 30
0.0
 10
92.02942723872604
 20
47.7258865206978
 30
0.0
 10
91.67393051143836
 20
46.51120233572149
 30
0.0
 10
90.93612102009149
 20
45.48178306688024
 30
0.0
 10
89.90037677868565
 20
44.7584085474061
 30
0.0
 10
88.95852885079898
 20
44.48538736473127
 30
0.0
 10
88.41484625879729
 20
44.46770212294907
 30
0.0
 10
88.28512169094722
 20
44.46348236240996
 30
0.0
  0
SPLINE
  5
C1E
330
1F
100
AcDbEntity
  8
0
  6
Continuous
 62
     7
370
    25
100
AcDbSpline
210
0.0
220
0.0
230
1.0
 70
     8
 71
     3
 72
    19
 73
    15
 74
     0
 42
0.0000000001
 43
0.0000000001
 40
0.0
 40
0.0
 40
0.0
 40
0.0
 40
0.1197212634877524
 40
0.1848130338119703
 40
0.2499997456271155
 40
0.3150915488130153
 40
0.3802783461743354
 40
0.5000000428160643
 40
0.6197216582702088
 40
0.6848132411616179
 40
0.7500001855562202
 40
0.8150919364864616
 40
0.8802787365122476
 40
1.0
 40
1.0
 40
1.0
 40
1.0
 10
88.28512169094722
 20
46.36232103519691
 30
0.0
 10
88.05878222500473
 20
46.38649640321264
 30
0.0
 10
87.70938327820465
 20
46.42381578137778
 30
0.0
 10
87.28977036496166
 20
46.64790016351211
 30
0.0
 10
87.00380669190167
 20
46.88043745543033
 30
0.0
 10
86.76962359622905
 20
47.16689266750089
 30
0.0
 10
86.55260151925848
 20
47.58636325904748
 30
0.0
 10
86.44142975407271
 20
48.1623202638228
 30
0.0
 10
86.55256691055399
 20
48.73810141939102
 30
0.0
 10
86.7695238791531
 20
49.15759193346125
 30
0.0
 10
87.00355467742168
 20
49.4439530832416
 30
0.0
 10
87.28961335585655
 20
49.67664311249897
 30
0.0
 10
87.70920589003537
 20
49.9008021012788
 30
0.0
 10
88.05878311735535
 20
49.93814366526251
 30
0.0
 10
88.28512169094722
 20
49.9623209733571
 30
0.0
  0
SPLINE
  5
C1F
330
1F
100
AcDbEntity
  8
0
  6
Continuous
 62
     7
370
    25
100
AcDbSpline
210
0.0
220
0.0
230
1.0
 70
     8
 71
     3
 72
    19
 73
    15
 74
     0
 42
0.0000000001
 43
0.0000000001
 40
0.0
 40
0.0
 40
0.0
 40
0.0
 40
0.1197218007648088
 40
0.1848135100736912
 40
0.2500001607845052
 40
0.3150919029550385
 40
0.3802786392119473
 40
0.5000000185528587
 40
0.6197214790813619
 40
0.6848133050716543
 40
0.749999770398895
 40
0.815091460313819
 40
0.8802781992351912
 40
1.0
 40
1.0
 40
1.0
 40
1.0
 10
88.28512169094722
 20
49.9623209733571
 30
0.0
 10
88.51146245550216
 20
49.93814581169013
 30
0.0
 10
88.86086273935154
 20
49.90082682337121
 30
0.0
 10
89.28047672959975
 20
49.67674184184639
 30
0.0
 10
89.56644046818349
 20
49.44420455563014
 30
0.0
 10
89.80062331220336
 20
49.15774933422724
 30
0.0
 10
90.01764641616786
 20
48.73827912727555
 30
0.0
 10
90.12880987474671
 20
48.16232238294256
 30
0.0
 10
90.01768334742212
 20
47.58653847323452
 30
0.0
 10
89.80071826691732
 20
47.16705239950741
 30
0.0
 10
89.56669298800216
 20
46.88068758232614
 30
0.0
 10
89.28063344624263
 20
46.64799911992381
 30
0.0
 10
88.86104027513169
 20
46.42383919950717
 30
0.0
 10
88.51146162114071
 20
46.38649809320125
 30
0.0
 10
88.28512169094722
 20
46.36232103519691
 30
0.0
  0
CIRCLE
  5
C20
330
1F
100
AcDbEntity
  8
0
  6
Continuous
 62
     7
370
    25
100
AcDbCircle
 10
88.28512238236113
 20
48.16232102091991
 30
0.0
 40
1.499999999999985
  0
SPLINE
  5
C21
330
1F
100
AcDbEntity
  8
0
  6
Continuous
 62
     7
370
    25
100
AcDbSpline
210
0.0
220
0.0
230
1.0
 70
     8
 71
     3
 72
    17
 73
    13
 74
     0
 42
0.0000000001
 43
0.0000000001
 40
0.0
 40
0.0
 40
0.0
 40
0.0
 40
0.1073721179020127
 40
0.2147446738798301
 40
0.322117062992202
 40
0.4294896552320927
 40
0.5368621801226605
 40
0.6442346031243086
 40
0.7516071598103081
 40
0.8589799862031608
 40
0.9663523024243435
 40
1.0
 40
1.0
 40
1.0
 40
1.0
 10
88.2851253029878
 20
86.53325072887495
 30
0.0
 10
88.70105112587124
 20
86.57414692437843
 30
0.0
 10
89.53290446860581
 20
86.65593948224088
 30
0.0
 10
90.64000862267324
 20
87.29354694688082
 30
0.0
 10
91.48161331797814
 20
88.23252169827341
 30
0.0
 10
91.96284956881516
 20
89.40493115591934
 30
0.0
 10
92.02942534409817
 20
90.6685230750431
 30
0.0
 10
91.67393582001125
 20
91.88320969173068
 30
0.0
 10
90.93611997404195
 20
92.91262746337711
 30
0.0
 10
89.90037471705761
 20
93.63599990453705
 30
0.0
 10
88.95852880076359
 20
93.90902269298052
 30
0.0
 10
88.4148486334276
 20
93.92670811425885
 30
0.0
 10
88.2851253029878
 20
93.93092789619371
 30
0.0
  0
SPLINE
  5
C22
330
1F
100
AcDbEntity
  8
0
  6
Continuous
 62
     7
370
    25
100
AcDbSpline
210
0.0
220
0.0
230
1.0
 70
     8
 71
     3
 72
    17
 73
    13
 74
     0
 42
0.0000000001
 43
0.0000000001
 40
0.0
 40
0.0
 40
0.0
 40
0.0
 40
0.1073726365198862
 40
0.2147450761272828
 40
0.3221173488694148
 40
0.4294898247388454
 40
0.536862233259026
 40
0.6442347208276449
 40
0.7516067857803809
 40
0.8589794958025198
 40
0.9663516956535415
 40
1.0
 40
1.0
 40
1.0
 40
1.0
 10
88.2851253029878
 20
86.53325072887495
 30
0.0
 10
87.86919690555022
 20
86.57414656822206
 30
0.0
 10
87.03734087345287
 20
86.65593817191663
 30
0.0
 10
85.93023458310824
 20
87.2935469424876
 30
0.0
 10
85.08862963163892
 20
88.23252176925624
 30
0.0
 10
84.6073943593068
 20
89.40493087638058
 30
0.0
 10
84.54081488877239
 20
90.66852483198985
 30
0.0
 10
84.89631820681415
 20
91.88320571798746
 30
0.0
 10
85.63412177254155
 20
92.91262991871539
 30
0.0
 10
86.66986916143287
 20
93.63599942797462
 30
0.0
 10
87.61171674582261
 20
93.90902351753172
 30
0.0
 10
88.15539947345996
 20
93.92670822351211
 30
0.0
 10
88.2851253029878
 20
93.93092789619371
 30
0.0
  0
SPLINE
  5
C23
330
1F
100
AcDbEntity
  8
0
  6
Continuous
 62
     7
370
    25
100
AcDbSpline
210
0.0
220
0.0
230
1.0
 70
     8
 71
     3
 72
    19
 73
    15
 74
     0
 42
0.0000000001
 43
0.0000000001
 40
0.0
 40
0.0
 40
0.0
 40
0.0
 40
0.1197206515114985
 40
0.1848130293633286
 40
0.2499997616104106
 40
0.3150915851984991
 40
0.3802784029917829
 40
0.5000001371587383
 40
0.6197217901380841
 40
0.6848136975460364
 40
0.7500002444093133
 40
0.8150925280307511
 40
0.8802793484885015
 40
1.0
 40
1.0
 40
1.0
 40
1.0
 10
88.2851253029878
 20
92.03208922340676
 30
0.0
 10
88.51146324325815
 20
92.00791318680698
 30
0.0
 10
88.86086161248773
 20
91.97059258668
 30
0.0
 10
89.28047598740306
 20
91.74651123104476
 30
0.0
 10
89.56644024944045
 20
91.5139726830233
 30
0.0
 10
89.80062339054587
 20
91.22751763504808
 30
0.0
 10
90.01764558083506
 20
90.80804691618189
 30
0.0
 10
90.12881640454816
 20
90.23209049330692
 30
0.0
 10
90.01768244546884
 20
89.65630680827777
 30
0.0
 10
89.80071819966656
 20
89.23682079172854
 30
0.0
 10
89.5666927140237
 20
88.95045447056352
 30
0.0
 10
89.280629910068
 20
88.71776851977271
 30
0.0
 10
88.8610389097721
 20
88.49360829079168
 30
0.0
 10
88.51146275151597
 20
88.45626661772675
 30
0.0
 10
88.2851253029878
 20
88.43208928524658
 30
0.0
  0
SPLINE
  5
C24
330
1F
100
AcDbEntity
  8
0
  6
Continuous
 62
     7
370
    25
100
AcDbSpline
210
0.0
220
0.0
230
1.0
 70
     8
 71
     3
 72
    19
 73
    15
 74
     0
 42
0.0000000001
 43
0.0000000001
 40
0.0
 40
0.0
 40
0.0
 40
0.0
 40
0.1197216988048279
 40
0.1848139398031482
 40
0.250000534998345
 40
0.3150922217340891
 40
0.3802789024753079
 40
0.500000055970927
 40
0.619721290654153
 40
0.6848130612095848
 40
0.7499994710213662
 40
0.8150916177894924
 40
0.8802783011951722
 40
1.0
 40
1.0
 40
1.0
 40
1.0
 10
88.2851253029878
 20
88.43208928524658
 30
0.0
 10
88.05878476610393
 20
88.45626490880514
 30
0.0
 10
87.70938372371745
 20
88.49358472870134
 30
0.0
 10
87.28976719017442
 20
88.71766728576799
 30
0.0
 10
87.00380281188541
 20
88.95020581385196
 30
0.0
 10
86.76962011854085
 20
89.23666091252087
 30
0.0
 10
86.55259606932805
 20
89.65613084530607
 30
0.0
 10
86.44144007827675
 20
90.23208784127863
 30
0.0
 10
86.55255906595323
 20
90.80787217732249
 30
0.0
 10
86.76952530988273
 20
91.22735767747101
 30
0.0
 10
87.00355034737823
 20
91.51372404999253
 30
0.0
 10
87.28961326754484
 20
91.7464099806858
 30
0.0
 10
87.70920642632006
 20
91.97057141162119
 30
0.0
 10
88.05878525784635
 20
92.00791230394699
 30
0.0
 10
88.2851253029878
 20
92.03208922340676
 30
0.0
  0
CIRCLE
  5
C25
102
{ACAD_REACTORS
330
C5E
102
}
330
1F
100
AcDbEntity
  8
0
  6
Continuous
 62
     7
370
    25
100
AcDbCircle
 10
88.28512238236021
 20
90.23208923768377
 30
0.0
 40
1.5
  0
SPLINE
  5
C26
330
1F
100
AcDbEntity
  8
0
  6
Continuous
 62
     7
370
    25
100
AcDbSpline
210
0.0
220
0.0
230
1.0
 70
     8
 71
     3
 72
    34
 73
    30
 74
     0
 42
0.0000000001
 43
0.0000000001
 40
0.0
 40
0.0
 40
0.0
 40
0.0
 40
0.0365747145930126
 40
0.0731492451151156
 40
0.10972374706833
 40
0.1462984721621533
 40
0.1828728892415501
 40
0.2194475266898955
 40
0.2560221048047936
 40
0.2925965752716444
 40
0.329171133576033
 40
0.3657457133249871
 40
0.4023203141703054
 40
0.4388948935407503
 40
0.475469495680213
 40
0.5120440639582215
 40
0.5486186265448766
 40
0.5851932260778727
 40
0.6217678062795037
 40
0.6583424081247098
 40
0.6949170267880241
 40
0.7314915710878132
 40
0.7680660800558819
 40
0.8046405437197925
 40
0.8406034484696204
 40
0.8848680060543047
 40
0.92144255217845
 40
0.9580172099086583
 40
0.9999999999999998
 40
0.9999999999999998
 40
0.9999999999999998
 40
0.9999999999999998
 10
92.25375156374525
 20
94.61957109092882
 30
0.0
 10
91.99598267426052
 20
94.83038383932612
 30
0.0
 10
91.48044619257394
 20
95.25200827515565
 30
0.0
 10
90.58749257448061
 20
95.71081476119204
 30
0.0
 10
89.63609020772798
 20
96.02002037224449
 30
0.0
 10
88.64491597232666
 20
96.16586004301266
 30
0.0
 10
87.64390972397269
 20
96.14044464880945
 30
0.0
 10
86.66057301474541
 20
95.95058867615554
 30
0.0
 10
85.72434370924032
 20
95.59510590089471
 30
0.0
 10
84.85930119710316
 20
95.09050328137803
 30
0.0
 10
84.09351121175939
 20
94.44515118649375
 30
0.0
 10
83.44425792500045
 20
93.68266286259453
 30
0.0
 10
82.93524854001715
 20
92.82020837325863
 30
0.0
 10
82.57498166681193
 20
91.8857961527153
 30
0.0
 10
82.38014000352052
 20
90.90347479762252
 30
0.0
 10
82.34948151046751
 20
89.90248620829957
 30
0.0
 10
82.49078054940389
 20
88.91104676423223
 30
0.0
 10
82.79318193167672
 20
87.95633655022365
 30
0.0
 10
83.2546899579952
 20
87.06755684431906
 30
0.0
 10
83.85605817537976
 20
86.2667611341117
 30
0.0
 10
84.58574034805076
 20
85.58084044482891
 30
0.0
 10
85.41828332575859
 20
85.02426343211878
 30
0.0
 10
86.33383850744598
 20
84.61845490702812
 30
0.0
 10
87.29840108578049
 20
84.37052397820181
 30
0.0
 10
88.36030916440439
 20
84.28278507323406
 30
0.0
 10
89.42432535880243
 20
84.39058833630227
 30
0.0
 10
90.44908162117407
 20
84.69904397901817
 30
0.0
 10
91.39959692552043
 20
85.15379017833707
 30
0.0
 10
91.95625924497244
 20
85.60400342447948
 30
0.0
 10
92.25375156374525
 20
85.84460706847867
 30
0.0
  0
SPLINE
  5
C27
330
1F
100
AcDbEntity
  8
0
  6
Continuous
 62
     7
370
    25
100
AcDbSpline
210
0.0
220
0.0
230
1.0
 70
     9
 71
     3
 72
    43
 73
    39
 74
     0
 42
0.0000000001
 43
0.0000000001
 40
0.0
 40
0.0
 40
0.0
 40
0.0
 40
0.0268498912299894
 40
0.0537000264252533
 40
0.0805500738844224
 40
0.1073999022683018
 40
0.1342500352741494
 40
0.161100067057864
 40
0.187950065926192
 40
0.2148000533990849
 40
0.2499998807313676
 40
0.2768499067059019
 40
0.3036999220620622
 40
0.3305499735000751
 40
0.3574000715065313
 40
0.3842500647873192
 40
0.4111000187856435
 40
0.4379500573857564
 40
0.4648000599836485
 40
0.4999997877405364
 40
0.5268499606462333
 40
0.5536998219235985
 40
0.5805498766292722
 40
0.6073999450201212
 40
0.6342500780259689
 40
0.6611000885954735
 40
0.6879500953302801
 40
0.7148000828031731
 40
0.7499999277074955
 40
0.7768499600649456
 40
0.8036999754211059
 40
0.8305499189789259
 40
0.8574000022922623
 40
0.8842499987778483
 40
0.911099947471208
 40
0.937949986071321
 40
0.9647999913344403
 40
1.0
 40
1.0
 40
1.0
 40
1.0
 10
88.2851253029878
 20
86.03460112285942
 30
0.0
 10
88.52109329921153
 20
86.04635982849377
 30
0.0
 10
88.99303143572694
 20
86.06987734660524
 30
0.0
 10
89.68125737500612
 20
86.25346232288459
 30
0.0
 10
90.32903643343535
 20
86.54358281680996
 30
0.0
 10
90.91998226669932
 20
86.93859821164394
 30
0.0
 10
91.43460859860249
 20
87.42839964862847
 30
0.0
 10
91.86163642823249
 20
87.99630365151674
 30
0.0
 10
92.18516521319088
 20
88.62901407220974
 30
0.0
 10
92.42206948380044
 20
89.37618923472385
 30
0.0
 10
92.50905351859728
 20
90.15897909072762
 30
0.0
 10
92.44194146959648
 20
90.93993234707122
 30
0.0
 10
92.2651978808085
 20
91.62824022780771
 30
0.0
 10
91.97323918290999
 20
92.27599636484487
 30
0.0
 10
91.57871781492906
 20
92.86695149594502
 30
0.0
 10
91.08878072196592
 20
93.38157306296862
 30
0.0
 10
90.52091566107254
 20
93.80860337050203
 30
0.0
 10
89.88819530690795
 20
94.13213052874672
 30
0.0
 10
89.1410249794019
 20
94.36904049083485
 30
0.0
 10
88.35823273107029
 20
94.45601959522557
 30
0.0
 10
87.57728083080223
 20
94.3889067472438
 30
0.0
 10
86.88897354220229
 20
94.2121612508823
 30
0.0
 10
86.24121782017187
 20
93.92020589916681
 30
0.0
 10
85.65026040910936
 20
93.52568623583536
 30
0.0
 10
85.13563533439651
 20
93.03575031968874
 30
0.0
 10
84.70860634354233
 20
92.46788251545629
 30
0.0
 10
84.38507789474625
 20
91.83516243469856
 30
0.0
 10
84.14817433886913
 20
91.08798996737844
 30
0.0
 10
84.06118620395648
 20
90.30519845391618
 30
0.0
 10
84.12831113662434
 20
89.52424680166231
 30
0.0
 10
84.30505408817362
 20
88.83593792139729
 30
0.0
 10
84.5970020975127
 20
88.18818850951695
 30
0.0
 10
84.99152650299459
 20
87.59719623275257
 30
0.0
 10
85.48146075077818
 20
87.08272210712712
 30
0.0
 10
86.0493328175279
 20
86.65514017660852
 30
0.0
 10
86.68202847594011
 20
86.33367312687861
 30
0.0
 10
87.42930237931535
 20
86.08827664012782
 30
0.0
 10
87.97535700138917
 20
86.05402917667962
 30
0.0
 10
88.2851253029878
 20
86.03460112285942
 30
0.0
  0
LINE
  5
C28
330
1F
100
AcDbEntity
  8
0
  6
Continuous
 62
     7
370
    25
100
AcDbLine
 10
106.2851245281274
 20
88.29559767550946
 30
0.0
 11
106.2851245281274
 21
86.23208918075235
 31
0.0
  0
LINE
  5
C29
330
1F
100
AcDbEntity
  8
0
  6
Continuous
 62
     7
370
    25
100
AcDbLine
 10
106.2851245281274
 20
94.23208967714728
 30
0.0
 11
106.2851245281274
 21
92.16858106597484
 31
0.0
  0
SPLINE
  5
C2A
330
1F
100
AcDbEntity
  8
0
  6
Continuous
 62
     7
370
    25
100
AcDbSpline
210
0.0
220
0.0
230
1.0
 70
     8
 71
     3
 72
    12
 73
     8
 74
     0
 42
0.0000000001
 43
0.0000000001
 40
0.0
 40
0.0
 40
0.0
 40
0.0
 40
0.1933653922364675
 40
0.3878387545470066
 40
0.5001181053223716
 40
0.6934283635966838
 40
1.0
 40
1.0
 40
1.0
 40
1.0
 10
106.2851245281274
 20
92.16858106597484
 30
0.0
 10
106.2683743179548
 20
91.91800902703974
 30
0.0
 10
106.2347779200855
 20
91.41542918904027
 30
0.0
 10
106.1173437933705
 20
90.7762543330879
 30
0.0
 10
106.0778452011411
 20
90.12650048824966
 30
0.0
 10
106.1762609130868
 20
89.33556646556914
 30
0.0
 10
106.2437402507679
 20
88.69093965305607
 30
0.0
 10
106.2851245281274
 20
88.29559767550946
 30
0.0
  0
SPLINE
  5
C2B
330
1F
100
AcDbEntity
  8
0
  6
Continuous
 62
     7
370
    25
100
AcDbSpline
210
0.0
220
0.0
230
1.0
 70
     8
 71
     3
 72
    13
 73
     9
 74
     0
 42
0.0000000001
 43
0.0000000001
 40
0.0
 40
0.0
 40
0.0
 40
0.0
 40
0.2211068125259105
 40
0.441269291405088
 40
0.4998695053339571
 40
0.6581823999242812
 40
0.8167337609247747
 40
1.0
 40
1.0
 40
1.0
 40
1.0
 10
108.2851211306627
 20
88.29559767550952
 30
0.0
 10
108.4048103586392
 20
88.56799827249213
 30
0.0
 10
108.643677629234
 20
89.11163606020053
 30
0.0
 10
108.7722638797022
 20
89.7790040034765
 30
0.0
 10
108.7925674863551
 20
90.36597696576334
 30
0.0
 10
108.7432851665966
 20
90.87072421085938
 30
0.0
 10
108.5747069403175
 20
91.52419232283117
 30
0.0
 10
108.3861931848146
 20
91.94367469359574
 30
0.0
 10
108.2851211306627
 20
92.1685810659749
 30
0.0
  0
LINE
  5
C2C
330
1F
100
AcDbEntity
  8
0
  6
Continuous
 62
     7
370
    25
100
AcDbLine
 10
106.2851245281274
 20
88.29559767550946
 30
0.0
 11
108.2851211306627
 21
88.29559767550952
 31
0.0
  0
LINE
  5
C2D
330
1F
100
AcDbEntity
  8
0
  6
Continuous
 62
     7
370
    25
100
AcDbLine
 10
108.2851211306627
 20
92.1685810659749
 30
0.0
 11
106.2851245281274
 21
92.16858106597484
 31
0.0
  0
LINE
  5
C2E
330
1F
100
AcDbEntity
  8
0
  6
Continuous
 62
     7
370
    25
100
AcDbLine
 10
108.2851211306627
 20
86.2320891807524
 30
0.0
 11
108.2851211306627
 21
88.29559767550952
 31
0.0
  0
LINE
  5
C2F
330
1F
100
AcDbEntity
  8
0
  6
Continuous
 62
     7
370
    25
100
AcDbLine
 10
108.2851211306627
 20
92.1685810659749
 30
0.0
 11
108.2851211306627
 21
94.23208967714733
 31
0.0
  0
LINE
  5
C30
102
{ACAD_REACTORS
330
C5E
330
C69
102
}
330
1F
100
AcDbEntity
  8
0
  6
Continuous
 62
     7
370
    25
100
AcDbLine
 10
109.2851231572206
 20
87.23208922824985
 30
0.0
 11
109.2851231572206
 21
93.23208951323456
 31
0.0
  0
SPLINE
  5
C31
330
1F
100
AcDbEntity
  8
0
  6
Continuous
 62
     7
370
    25
100
AcDbSpline
210
0.0
220
0.0
230
1.0
 70
     8
 71
     3
 72
    13
 73
     9
 74
     0
 42
0.0000000001
 43
0.0000000001
 40
0.0
 40
0.0
 40
0.0
 40
0.0
 40
0.2020919018058301
 40
0.3594419127658602
 40
0.5000095283693645
 40
0.6486728496958351
 40
0.7966175465584934
 40
1.0
 40
1.0
 40
1.0
 40
1.0
 10
95.56093763084959
 20
92.6597876001816
 30
0.0
 10
95.77638743752231
 20
92.4135611767862
 30
0.0
 10
96.15958780291805
 20
91.97562132957861
 30
0.0
 10
96.50767854208346
 20
91.09877396617273
 30
0.0
 10
96.62241541227047
 20
90.21618747122246
 30
0.0
 10
96.50325953939649
 20
89.351560802163
 30
0.0
 10
96.15235333834551
 20
88.48091219933261
 30
0.0
 10
95.77777825661518
 20
88.05243506925771
 30
0.0
 10
95.56093763084959
 20
87.8043906756412
 30
0.0
  0
SPLINE
  5
C32
330
1F
100
AcDbEntity
  8
0
  6
Continuous
 62
     7
370
    25
100
AcDbSpline
210
0.0
220
0.0
230
1.0
 70
     8
 71
     3
 72
     9
 73
     5
 74
     0
 42
0.0000000001
 43
0.0000000001
 40
0.0
 40
0.0
 40
0.0
 40
0.0
 40
0.4973505634935346
 40
1.0
 40
1.0
 40
1.0
 40
1.0
 10
94.50544368000578
 20
93.44263360767772
 30
0.0
 10
94.68795676873275
 20
93.33405899471385
 30
0.0
 10
95.05492747737127
 20
93.11575299300503
 30
0.0
 10
95.39167278947457
 20
92.81231202950024
 30
0.0
 10
95.56093763084959
 20
92.6597876001816
 30
0.0
  0
SPLINE
  5
C33
330
1F
100
AcDbEntity
  8
0
  6
Continuous
 62
     7
370
    25
100
AcDbSpline
210
0.0
220
0.0
230
1.0
 70
     8
 71
     3
 72
     9
 73
     5
 74
     0
 42
0.0000000001
 43
0.0000000001
 40
0.0
 40
0.0
 40
0.0
 40
0.0
 40
0.4973504250480965
 40
0.9999999999999998
 40
0.9999999999999998
 40
0.9999999999999998
 40
0.9999999999999998
 10
94.50544368000578
 20
87.02154536663702
 30
0.0
 10
94.68795679145069
 20
87.13011959462543
 30
0.0
 10
95.05492764791904
 20
87.34842488305034
 30
0.0
 10
95.39167281549863
 20
87.65186608463952
 30
0.0
 10
95.56093763084959
 20
87.8043906756412
 30
0.0
  0
ARC
  5
C34
330
1F
100
AcDbEntity
  8
0
  6
Continuous
 62
     7
370
    25
100
AcDbCircle
 10
88.28512238236021
 20
90.23208923768377
 30
0.0
 40
7.000000000000632
100
AcDbArc
 50
332.700027394841
 51
27.29997260516183
  0
SPLINE
  5
C35
330
1F
100
AcDbEntity
  8
0
  6
Continuous
 62
     7
370
    25
100
AcDbSpline
210
0.0
220
0.0
230
1.0
 70
     8
 71
     3
 72
    10
 73
     6
 74
     0
 42
0.0000000001
 43
0.0000000001
 40
0.0
 40
0.0
 40
0.0
 40
0.0
 40
0.3203446739921017
 40
0.6500314900133319
 40
1.0
 40
1.0
 40
1.0
 40
1.0
 10
94.50544368000578
 20
93.44263360767772
 30
0.0
 10
94.24126903027593
 20
93.51674268461616
 30
0.0
 10
93.7052156629835
 20
93.66712206537952
 30
0.0
 10
92.93784085461879
 20
94.06275861525633
 30
0.0
 10
92.48627309389576
 20
94.43031087215691
 30
0.0
 10
92.25375156374525
 20
94.61957109092882
 30
0.0
  0
SPLINE
  5
C36
330
1F
100
AcDbEntity
  8
0
  6
Continuous
 62
     7
370
    25
100
AcDbSpline
210
0.0
220
0.0
230
1.0
 70
     8
 71
     3
 72
    10
 73
     6
 74
     0
 42
0.0000000001
 43
0.0000000001
 40
0.0
 40
0.0
 40
0.0
 40
0.0
 40
0.3179230931920505
 40
0.6444138877203255
 40
1.0
 40
1.0
 40
1.0
 40
1.0
 10
92.25375156374525
 20
85.84460706847867
 30
0.0
 10
92.46413259611619
 20
86.01736168717522
 30
0.0
 10
92.89056421393786
 20
86.36752648438491
 30
0.0
 10
93.65045807791466
 20
86.77705657482826
 30
0.0
 10
94.2124574207769
 20
86.9377640066232
 30
0.0
 10
94.50544368000578
 20
87.02154536663702
 30
0.0
  0
CIRCLE
  5
C37
330
1F
100
AcDbEntity
  8
0
  6
Continuous
 62
     7
370
    25
100
AcDbCircle
 10
88.28512238235919
 20
90.23208923768377
 30
0.0
 40
4.762227307199964
  0
CIRCLE
  5
C38
330
1F
100
AcDbEntity
  8
0
  6
Continuous
 62
     7
370
    25
100
AcDbCircle
 10
88.28512238235919
 20
90.23208923768377
 30
0.0
 40
5.559899496852864
  0
SPLINE
  5
C39
330
1F
100
AcDbEntity
  8
0
  6
Continuous
 62
     7
370
    25
100
AcDbSpline
210
0.0
220
0.0
230
1.0
 70
     8
 71
     3
 72
    34
 73
    30
 74
     0
 42
0.0000000001
 43
0.0000000001
 40
0.0
 40
0.0
 40
0.0
 40
0.0
 40
0.0365744852257973
 40
0.0731491511358825
 40
0.1097236582768211
 40
0.1462982542518562
 40
0.1828728132466284
 40
0.2194474566188464
 40
0.2560220421400584
 40
0.2925966350440056
 40
0.3291712050503746
 40
0.3657457789209559
 40
0.4023203926356777
 40
0.4388949854979898
 40
0.4754695396533472
 40
0.5120441134479398
 40
0.548618681551178
 40
0.5851932866007629
 40
0.6217677314344426
 40
0.6583423490350572
 40
0.694916971017862
 40
0.7314915275002635
 40
0.7680661676586334
 40
0.8046407708525503
 40
0.840603408744019
 40
0.8848681116055326
 40
0.9214426647690618
 40
0.9580172048691794
 40
1.0
 40
1.0
 40
1.0
 40
1.0
 10
92.25374795170466
 20
52.54980319012512
 30
0.0
 10
91.99598174750667
 20
52.76061596948946
 30
0.0
 10
91.48044806570112
 20
53.18224256966979
 30
0.0
 10
90.58749339784061
 20
53.64104556021314
 30
0.0
 10
89.63609157668463
 20
53.95025186227624
 30
0.0
 10
88.64491735552929
 20
54.09609217666892
 30
0.0
 10
87.64391108387702
 20
54.07067706570737
 30
0.0
 10
86.66057299338092
 20
53.88082103705804
 30
0.0
 10
85.72434326075461
 20
53.52533682165532
 30
0.0
 10
84.85929794289063
 20
53.02073665729179
 30
0.0
 10
84.0935079812001
 20
52.37538281896812
 30
0.0
 10
83.44425388465504
 20
51.61289511624559
 30
0.0
 10
82.93524566818632
 20
50.75044016537507
 30
0.0
 10
82.57497561985941
 20
49.81602896777613
 30
0.0
 10
82.3801463824177
 20
48.83370551936363
 30
0.0
 10
82.34948479740467
 20
47.83271817167244
 30
0.0
 10
82.49078403904935
 20
46.84127820062499
 30
0.0
 10
82.79318732911622
 20
45.88657056682203
 30
0.0
 10
83.25468511250312
 20
44.99778690172044
 30
0.0
 10
83.85605495058086
 20
44.19699326878677
 30
0.0
 10
84.58573677970196
 20
43.51107247833269
 30
0.0
 10
85.41828041366636
 20
42.9544940082861
 30
0.0
 10
86.33383882479767
 20
42.54868659725352
 30
0.0
 10
87.29840131076697
 20
42.30075639795077
 30
0.0
 10
88.36030927924515
 20
42.21301597053641
 30
0.0
 10
89.42432418953615
 20
42.3208204300437
 30
0.0
 10
90.44908091181412
 20
42.62927524756358
 30
0.0
 10
91.39959393056278
 20
43.0840235599052
 30
0.0
 10
91.95625554670948
 20
43.53423572675339
 30
0.0
 10
92.25374795170466
 20
43.77483916767497
 30
0.0
  0
SPLINE
  5
C3A
330
1F
100
AcDbEntity
  8
0
  6
Continuous
 62
     7
370
    25
100
AcDbSpline
210
0.0
220
0.0
230
1.0
 70
     9
 71
     3
 72
    43
 73
    39
 74
     0
 42
0.0000000001
 43
0.0000000001
 40
0.0
 40
0.0
 40
0.0
 40
0.0
 40
0.0268500316900449
 40
0.0537000296422861
 40
0.0805500840639092
 40
0.1074001521707073
 40
0.1342501823388354
 40
0.1611001926242898
 40
0.1879501990750463
 40
0.2148002289073073
 40
0.2500000578190987
 40
0.2768500778924438
 40
0.3037000929645539
 40
0.3305500942098319
 40
0.3574000985699095
 40
0.3842501921804071
 40
0.4111001405897174
 40
0.4379501789057798
 40
0.4648001838848491
 40
0.5000000516016532
 40
0.5268500834791873
 40
0.5537000814314285
 40
0.580550128606547
 40
0.6074001917965369
 40
0.6342501194113501
 40
0.6611001509110143
 40
0.6879501494952923
 40
0.7148002219716487
 40
0.7500000176917996
 40
0.7768500433822835
 40
0.8037000584543935
 40
0.8305501096083558
 40
0.8574000499929459
 40
0.8842500429896837
 40
0.9111002229890802
 40
0.937950135441615
 40
0.9648002726154951
 40
1.0
 40
1.0
 40
1.0
 40
1.0
 10
88.28512169094722
 20
43.96483269818676
 30
0.0
 10
88.52109094177444
 20
43.97659120742756
 30
0.0
 10
88.99302914692691
 20
44.00010821113428
 30
0.0
 10
89.68125520734577
 20
44.18369407992881
 30
0.0
 10
90.32903359104523
 20
44.47381720044418
 30
0.0
 10
90.91998530634885
 20
44.86882658551857
 30
0.0
 10
91.43460808481894
 20
45.35863352899403
 30
0.0
 10
91.86163741688801
 20
45.92653491010756
 30
0.0
 10
92.18516397114013
 20
46.55924662392354
 30
0.0
 10
92.42207564684747
 20
47.30641991756241
 30
0.0
 10
92.50905395894461
 20
48.08921160774511
 30
0.0
 10
92.44193709775379
 20
48.87016406111976
 30
0.0
 10
92.26519376507269
 20
49.55847127442891
 30
0.0
 10
91.97323950704969
 20
50.20622776519477
 30
0.0
 10
91.57872184059398
 20
50.79718542754253
 30
0.0
 10
91.08878072882317
 20
51.31180336180577
 30
0.0
 10
90.52091593858131
 20
51.73883497842147
 30
0.0
 10
89.8881953185463
 20
52.06236182465196
 30
0.0
 10
89.14102400469051
 20
52.29927259405852
 30
0.0
 10
88.35823150327973
 20
52.38625133073989
 30
0.0
 10
87.57727865699337
 20
52.31913745661845
 30
0.0
 10
86.88897097851452
 20
52.14239352942744
 30
0.0
 10
86.2412145564042
 20
51.85043749737829
 30
0.0
 10
85.65025685858165
 20
51.45592089480655
 30
0.0
 10
85.13563928188444
 20
50.96597968473284
 30
0.0
 10
84.70860930837408
 20
50.39811471025186
 30
0.0
 10
84.38508449359517
 20
49.76539258298529
 30
0.0
 10
84.14816479678711
 20
49.01822413328327
 30
0.0
 10
84.06119626695533
 20
48.23543001625913
 30
0.0
 10
84.12830497606012
 20
47.45447873674121
 30
0.0
 10
84.30504884968639
 20
46.76616744725251
 30
0.0
 10
84.5970088427846
 20
46.1184246679766
 30
0.0
 10
84.99152139291608
 20
45.52742556362713
 30
0.0
 10
85.48145833343539
 20
45.01295136849321
 30
0.0
 10
86.04933504475445
 20
44.58537499738847
 30
0.0
 10
86.68203005086127
 20
44.2639023444502
 30
0.0
 10
87.42930307221229
 20
44.01851015479784
 30
0.0
 10
87.97535605113115
 20
43.98426138474119
 30
0.0
 10
88.28512169094722
 20
43.96483269818676
 30
0.0
  0
LINE
  5
C3B
330
1F
100
AcDbEntity
  8
0
  6
Continuous
 62
     7
370
    25
100
AcDbLine
 10
106.2851209160868
 20
52.16232107785166
 30
0.0
 11
106.2851209160868
 21
50.0988125830946
 31
0.0
  0
SPLINE
  5
C3C
330
1F
100
AcDbEntity
  8
0
  6
Continuous
 62
     7
370
    25
100
AcDbSpline
210
0.0
220
0.0
230
1.0
 70
     8
 71
     3
 72
    12
 73
     8
 74
     0
 42
0.0000000001
 43
0.0000000001
 40
0.0
 40
0.0
 40
0.0
 40
0.0
 40
0.1933652153889443
 40
0.3878387553855412
 40
0.5001179632840214
 40
0.6934282299267828
 40
1.0
 40
1.0
 40
1.0
 40
1.0
 10
106.2851209160868
 20
50.0988125830946
 30
0.0
 10
106.2683745649837
 20
49.8482404972946
 30
0.0
 10
106.2347858765732
 20
49.34566010456197
 30
0.0
 10
106.1173401816107
 20
48.70648666969865
 30
0.0
 10
106.0778529993933
 20
48.05673248238591
 30
0.0
 10
106.1762515005674
 20
47.26579780136288
 30
0.0
 10
106.2437344297914
 20
46.62117113846167
 30
0.0
 10
106.2851209160868
 20
46.22582919262916
 30
0.0
  0
LINE
  5
C3D
330
1F
100
AcDbEntity
  8
0
  6
Continuous
 62
     7
370
    25
100
AcDbLine
 10
106.2851209160868
 20
46.22582919262922
 30
0.0
 11
106.2851209160868
 21
44.16232058145678
 31
0.0
  0
SPLINE
  5
C3E
330
1F
100
AcDbEntity
  8
0
  6
Continuous
 62
     7
370
    25
100
AcDbSpline
210
0.0
220
0.0
230
1.0
 70
     8
 71
     3
 72
    13
 73
     9
 74
     0
 42
0.0000000001
 43
0.0000000001
 40
0.0
 40
0.0
 40
0.0
 40
0.0
 40
0.2211068328820014
 40
0.441269278530127
 40
0.4998695991009886
 40
0.6581823856347999
 40
0.8167338419806119
 40
1.0
 40
1.0
 40
1.0
 40
1.0
 10
108.2851212439124
 20
46.22582919262922
 30
0.0
 10
108.4048104223087
 20
46.49822986318739
 30
0.0
 10
108.6436775649946
 20
47.04186773182121
 30
0.0
 10
108.7722644039692
 20
47.70923595354278
 30
0.0
 10
108.7925670491902
 20
48.29620884712372
 30
0.0
 10
108.7432917601171
 20
48.8009571666528
 30
0.0
 10
108.5747052502745
 20
49.45442344666779
 30
0.0
 10
108.3861926368233
 20
49.87390614432567
 30
0.0
 10
108.2851212439124
 20
50.0988125830946
 30
0.0
  0
LINE
  5
C3F
330
1F
100
AcDbEntity
  8
0
  6
Continuous
 62
     7
370
    25
100
AcDbLine
 10
106.2851209160868
 20
46.22582919262922
 30
0.0
 11
108.2851212439124
 21
46.22582919262922
 31
0.0
  0
LINE
  5
C40
330
1F
100
AcDbEntity
  8
0
  6
Continuous
 62
     7
370
    25
100
AcDbLine
 10
108.2851212439124
 20
50.0988125830946
 30
0.0
 11
106.2851209160868
 21
50.0988125830946
 31
0.0
  0
LINE
  5
C41
330
1F
100
AcDbEntity
  8
0
  6
Continuous
 62
     7
370
    25
100
AcDbLine
 10
108.2851212439124
 20
44.16232058145678
 30
0.0
 11
108.2851212439124
 21
46.22582919262922
 31
0.0
  0
LINE
  5
C42
330
1F
100
AcDbEntity
  8
0
  6
Continuous
 62
     7
370
    25
100
AcDbLine
 10
108.2851212439124
 20
50.0988125830946
 30
0.0
 11
108.2851212439124
 21
52.16232107785171
 31
0.0
  0
LINE
  5
C43
330
1F
100
AcDbEntity
  8
0
  6
Continuous
 62
     7
370
    25
100
AcDbLine
 10
109.2851232704703
 20
48.16232123710787
 30
0.0
 11
109.2851232704703
 21
51.16232103035426
 31
0.0
  0
LINE
  5
C44
330
1F
100
AcDbEntity
  8
0
  6
Continuous
 62
     7
370
    25
100
AcDbLine
 10
109.2851232704703
 20
45.16232074536955
 30
0.0
 11
109.2851232704703
 21
48.16232123710787
 31
0.0
  0
SPLINE
  5
C45
330
1F
100
AcDbEntity
  8
0
  6
Continuous
 62
     7
370
    25
100
AcDbSpline
210
0.0
220
0.0
230
1.0
 70
     8
 71
     3
 72
     9
 73
     5
 74
     0
 42
0.0000000001
 43
0.0000000001
 40
0.0
 40
0.0
 40
0.0
 40
0.0
 40
0.4967241885563593
 40
1.0
 40
1.0
 40
1.0
 40
1.0
 10
95.5609377440993
 20
45.73462265842218
 30
0.0
 10
95.39371315166192
 20
45.58379352445169
 30
0.0
 10
95.05705833136142
 20
45.28014587159853
 30
0.0
 10
94.69011666044071
 20
45.06171009409664
 30
0.0
 10
94.50544379325549
 20
44.95177665092606
 30
0.0
  0
ARC
  5
C46
330
1F
100
AcDbEntity
  8
0
  6
Continuous
 62
     7
370
    25
100
AcDbCircle
 10
88.28512238236113
 20
48.16232102091991
 30
0.0
 40
7.000000000000198
100
AcDbArc
 50
332.7000273948418
 51
27.29997260516429
  0
SPLINE
  5
C47
330
1F
100
AcDbEntity
  8
0
  6
Continuous
 62
     7
370
    25
100
AcDbSpline
210
0.0
220
0.0
230
1.0
 70
     8
 71
     3
 72
     9
 73
     5
 74
     0
 42
0.0000000001
 43
0.0000000001
 40
0.0
 40
0.0
 40
0.0
 40
0.0
 40
0.4973504250480965
 40
0.9999999999999998
 40
0.9999999999999998
 40
0.9999999999999998
 40
0.9999999999999998
 10
94.50544379325549
 20
51.37286489196677
 30
0.0
 10
94.68795690470029
 20
51.26429066397841
 30
0.0
 10
95.05492776116865
 20
51.0459853755535
 30
0.0
 10
95.39167292874834
 20
50.74254417396431
 30
0.0
 10
95.5609377440993
 20
50.59001958296258
 30
0.0
  0
SPLINE
  5
C48
330
1F
100
AcDbEntity
  8
0
  6
Continuous
 62
     7
370
    25
100
AcDbSpline
210
0.0
220
0.0
230
1.0
 70
     8
 71
     3
 72
    13
 73
     9
 74
     0
 42
0.0000000001
 43
0.0000000001
 40
0.0
 40
0.0
 40
0.0
 40
0.0
 40
0.2020915865758832
 40
0.3594417805095527
 40
0.5000093215208864
 40
0.648672560513958
 40
0.7966172255255032
 40
1.0
 40
1.0
 40
1.0
 40
1.0
 10
95.5609377440993
 20
50.59001958296258
 30
0.0
 10
95.77638515990532
 20
50.34379277611609
 30
0.0
 10
96.1595817296169
 20
49.90585172492413
 30
0.0
 10
96.50768190204201
 20
49.0290071510241
 30
0.0
 10
96.62240758036739
 20
48.14641974831116
 30
0.0
 10
96.50326636835599
 20
47.28179221919131
 30
0.0
 10
96.15235625571017
 20
46.41114350858825
 30
0.0
 10
95.77777950172299
 20
45.98266692375895
 30
0.0
 10
95.5609377440993
 20
45.73462265842218
 30
0.0
  0
SPLINE
  5
C49
330
1F
100
AcDbEntity
  8
0
  6
Continuous
 62
     7
370
    25
100
AcDbSpline
210
0.0
220
0.0
230
1.0
 70
     8
 71
     3
 72
    10
 73
     6
 74
     0
 42
0.0000000001
 43
0.0000000001
 40
0.0
 40
0.0
 40
0.0
 40
0.0
 40
0.3203443043467224
 40
0.650030780677419
 40
1.0
 40
1.0
 40
1.0
 40
1.0
 10
94.50544379325549
 20
51.37286489196677
 30
0.0
 10
94.24126910355472
 20
51.44697403566201
 30
0.0
 10
93.70521562156273
 20
51.59735356130958
 30
0.0
 10
92.93784056610354
 20
51.99299173005622
 30
0.0
 10
92.48627083913993
 20
52.36054313128639
 30
0.0
 10
92.25374795170466
 20
52.54980319012512
 30
0.0
  0
SPLINE
  5
C4A
330
1F
100
AcDbEntity
  8
0
  6
Continuous
 62
     7
370
    25
100
AcDbSpline
210
0.0
220
0.0
230
1.0
 70
     8
 71
     3
 72
    10
 73
     6
 74
     0
 42
0.0000000001
 43
0.0000000001
 40
0.0
 40
0.0
 40
0.0
 40
0.0
 40
0.3179237725365505
 40
0.6444130242050149
 40
1.0
 40
1.0
 40
1.0
 40
1.0
 10
92.25374795170466
 20
43.77483916767497
 30
0.0
 10
92.46413045554744
 20
43.94759325422265
 30
0.0
 10
92.89056357333334
 20
44.29775575533975
 30
0.0
 10
93.65045570710265
 20
44.70729097164363
 30
0.0
 10
94.21245602329202
 20
44.86799616892747
 30
0.0
 10
94.50544379325549
 20
44.95177665092606
 30
0.0
  0
CIRCLE
  5
C4B
330
1F
100
AcDbEntity
  8
0
  6
Continuous
 62
     7
370
    25
100
AcDbCircle
 10
88.28512238236021
 20
48.16232102091996
 30
0.0
 40
5.559899496852665
  0
CIRCLE
  5
C4C
330
1F
100
AcDbEntity
  8
0
  6
Continuous
 62
     7
370
    25
100
AcDbCircle
 10
88.28512238236021
 20
48.16232102091996
 30
0.0
 40
4.762227307200532
  0
LINE
  5
C4D
330
1F
100
AcDbEntity
  8
0
  6
Continuous
 62
     7
370
    25
100
AcDbLine
 10
88.28512169094722
 20
51.86162030157252
 30
0.0
 11
88.28512169094722
 21
52.40636839597105
 31
0.0
  0
LINE
  5
C4E
330
1F
100
AcDbEntity
  8
0
  6
Continuous
 62
     7
370
    25
100
AcDbLine
 10
88.28512169094722
 20
43.91185627617491
 30
0.0
 11
88.28512169094722
 21
44.46302135773552
 31
0.0
  0
LINE
  5
C4F
330
1F
100
AcDbEntity
  8
0
  6
Continuous
 62
     7
370
    25
100
AcDbLine
 10
88.2851253029878
 20
85.98162411877096
 30
0.0
 11
88.2851253029878
 21
86.53278995703116
 31
0.0
  0
LINE
  5
C50
330
1F
100
AcDbEntity
  8
0
  6
Continuous
 62
     7
370
    25
100
AcDbLine
 10
88.2851253029878
 20
93.93138890086815
 30
0.0
 11
88.2851253029878
 21
94.47613623856708
 31
0.0
  0
LINE
  5
C51
330
1F
100
AcDbEntity
  8
0
  6
Continuous
 62
     7
370
    25
100
AcDbLine
 10
92.25375156374525
 20
94.61957109092882
 30
0.0
 11
92.25375156374525
 21
94.73208882778099
 31
0.0
  0
LINE
  5
C52
330
1F
100
AcDbEntity
  8
0
  6
Continuous
 62
     7
370
    25
100
AcDbLine
 10
92.25375156374525
 20
85.73208921521118
 30
0.0
 11
92.25375156374525
 21
85.84460706847867
 31
0.0
  0
LINE
  5
C53
102
{ACAD_REACTORS
330
C66
102
}
330
1F
100
AcDbEntity
  8
0
  6
Continuous
 62
     7
370
    25
100
AcDbLine
 10
105.5351192829186
 20
86.98208918727161
 30
0.0
 11
105.5351192829186
 21
93.48208908855141
 31
0.0
  0
LINE
  5
C54
330
1F
100
AcDbEntity
  8
0
  6
Continuous
 62
     7
370
    25
100
AcDbLine
 10
95.56093763084959
 20
93.48208908855131
 30
0.0
 11
95.56093763084959
 21
92.6597876001816
 31
0.0
  0
LINE
  5
C55
330
1F
100
AcDbEntity
  8
0
  6
Continuous
 62
     7
370
    25
100
AcDbLine
 10
95.56093763084959
 20
87.8043906756412
 30
0.0
 11
95.56093763084959
 21
86.9820891872715
 31
0.0
  0
LINE
  5
C56
330
1F
100
AcDbEntity
  8
0
  6
Continuous
 62
     7
370
    25
100
AcDbLine
 10
92.25374795170466
 20
43.6623214308228
 30
0.0
 11
92.25374795170466
 21
43.77483916767497
 31
0.0
  0
LINE
  5
C57
330
1F
100
AcDbEntity
  8
0
  6
Continuous
 62
     7
370
    25
100
AcDbLine
 10
92.25374795170466
 20
52.54980319012512
 30
0.0
 11
92.25374795170466
 21
52.66232104339261
 31
0.0
  0
LINE
  5
C58
330
1F
100
AcDbEntity
  8
0
  6
Continuous
 62
     7
370
    25
100
AcDbLine
 10
105.5351231214587
 20
48.16232123710782
 30
0.0
 11
105.5351231214587
 21
51.4123210713324
 31
0.0
  0
LINE
  5
C59
330
1F
100
AcDbEntity
  8
0
  6
Continuous
 62
     7
370
    25
100
AcDbLine
 10
105.5351231214587
 20
44.91232117005259
 30
0.0
 11
105.5351231214587
 21
48.16232123710782
 31
0.0
  0
LINE
  5
C5A
330
1F
100
AcDbEntity
  8
0
  6
Continuous
 62
     7
370
    25
100
AcDbLine
 10
95.5609377440993
 20
45.73462265842218
 30
0.0
 11
95.5609377440993
 21
44.91232117005248
 31
0.0
  0
LINE
  5
C5B
330
1F
100
AcDbEntity
  8
0
  6
Continuous
 62
     7
370
    25
100
AcDbLine
 10
95.5609377440993
 20
51.41232107133228
 30
0.0
 11
95.5609377440993
 21
50.59001958296258
 31
0.0
  0
DIMENSION
  5
C5C
102
{ACAD_XDICTIONARY
360
C5D
102
}
102
{ACAD_REACTORS
330
C5E
102
}
330
1F
100
AcDbEntity
  8
0
 62
     6
100
AcDbDimension
  2
*D21
 10
109.2851231572206
 20
100.6535910157085
 30
0.0
 11
98.78512276979041
 21
101.7785910157085
 31
0.0
 70
    32
 71
     5
 42
21.00000077486038
  3
BASE60
100
AcDbAlignedDimension
 13
88.28512238236021
 23
90.23208923768377
 33
0.0
 14
109.2851231572206
 24
87.23208922824985
 34
0.0
100
AcDbRotatedDimension
1001
ACAD
1000
DSTYLE
1002
{
1070
    90
1070
     1
1002
}
  0
DIMENSION
  5
C5F
102
{ACAD_XDICTIONARY
360
C60
102
}
102
{ACAD_REACTORS
330
C61
102
}
330
1F
100
AcDbEntity
  8
0
 62
     6
100
AcDbDimension
  2
*D22
 10
76.5333991814548
 20
84.23208923768363
 30
0.0
 11
75.40839918145478
 21
90.23208923768377
 31
0.0
 70
    32
  1
%%C<>
 71
     5
 42
12.00000000000025
  3
BASE60
100
AcDbAlignedDimension
 13
88.28512238236021
 23
96.23208923768389
 33
0.0
 14
88.28512238236021
 24
84.23208923768363
 34
0.0
 50
90.0
100
AcDbRotatedDimension
1001
ACAD
1000
DSTYLE
1002
{
1070
    90
1070
     1
1002
}
  0
MULTILEADER
  5
C62
102
{ACAD_XDICTIONARY
360
E3C
102
}
330
1F
100
AcDbEntity
  8
0
 62
     6
 92
      784
310
100300001A0000000C00000016000000020000C30C00000033000000000000000C00000013000000993A00000C00000016000000020000C3A40000000B000000FEAC77B39BD25140E052BEBAC0A75340000000000000000000000000000000000000000000000000000000000000F03F000000000000F03F00000000000000
310
0000000000000000005C552B323230350007000000010000000000000000000040000000000000F03F0000000000000000000000000000F03F000000000000000000000000000000000000000049534F43504555520000000000FFFFFF0C00000016000000020000C39C0000000B00000031E0AAE6CE455240E052BEBAC0A7
310
5340000000000000000000000000000000000000000000000000000000000000F03F000000000000F03F00000000000000000000000000000000332E300003000000010000000000000000000040000000000000F03F0000000000000000000000000000F03F0000000000000000000000000000000000000000B1BCB8B200
310
B80CD300C73E000C00000033000000000000000C00000010000000000000000C00000016000000010000C30C00000012000000FF7F00000C00000013000000010000000C0000001400000001000000540000000700000003000000B69CF69D8CA95540B12D88A330E25540000000000000000010E6F2713F125640BE66D18C
310
DA2E5640000000000000000043AC379412C855407F4294B060C4554000000000000000000C00000013000000891300003C00000006000000020000007D241799CFB8554018380EAA48D355400000000000000000F0CB25C665D753404E6667AB63E6534000000000000000000C00000013000000112700003C000000060000
310
0002000000F0CB25C665D753404E6667AB63E653400000000000000000F0CB25C6655753404E6667AB63E6534000000000000000000C00000016000000010000C30C00000012000000FF7F00000C00000017000000000000000C000000130000009A3A00000C00000016000000060000C30C00000012000000FF7F00000C00
310
000017000000FFFFFFFF0C0000003300000000000000
100
AcDbMLeader
300
CONTEXT_DATA{
 40
0.8
 10
71.09075323760112
 20
79.59983334634419
 30
0.0
 41
2.0
140
2.0
145
0.4
174
     1
175
     1
176
     2
177
     0
290
     1
304
{\fISOCPEUR|b0|i0|c0|p34;%%C}3.0
 11
0.0
 21
0.0
 31
1.0
340
9FF
 12
76.96558679286079
 22
80.62380138895404
 32
0.0
 13
1.0
 23
0.0
 33
0.0
 42
0.0
 43
0.0
 44
0.0
 45
1.0
170
     1
 90
-1023410174
171
     3
172
     5
 91
-1073741824
141
0.0
 92
        0
291
     0
292
     0
173
     0
293
     0
142
0.0
143
0.0
294
     0
295
     0
296
     0
110
88.28512238236021
120
88.73208923768377
130
0.0
111
1.0
121
0.0
131
0.0
112
0.0
122
1.0
132
0.0
297
     0
302
LEADER{
290
     1
291
     1
 10
79.36558679286076
 20
79.59983334634419
 30
0.0
 11
-1.0
 21
0.0
 31
0.0
 90
        0
 40
2.0
304
LEADER_LINE{
 10
88.28512238236021
 20
88.73208923768377
 30
0.0
 91
        0
305
}
303
}
301
}
340
A08
 90
   279552
170
     1
 91
-1023410175
341
14
171
    -2
290
     1
291
     1
 41
2.5
 42
2.5
172
     2
343
9FF
173
     1
 95
        1
174
     1
175
     2
 92
-1023410174
292
     0
 93
-1056964608
 10
1.0
 20
1.0
 30
1.0
 43
0.0
176
     0
293
     0
294
     0
178
     0
179
     3
 45
0.8
1001
ACAD_MLEADERVER
1070
     2
  0
DIMENSION
  5
C63
330
1F
100
AcDbEntity
  8
0
 62
     6
100
AcDbDimension
  2
*D14
 10
119.8509954024846
 20
88.73208924128837
 30
0.0
 11
118.7259954024846
 21
83.99994638414552
 31
0.0
 70
    32
  1
M3
 71
     5
 42
3.000000026077032
  3
BASE60
100
AcDbAlignedDimension
 13
109.2851231572208
 23
91.7320892673654
 33
0.0
 14
109.2851231572206
 24
88.73208924128837
 34
0.0
 50
90.0
100
AcDbRotatedDimension
1001
ACAD
1000
DSTYLE
1002
{
1070
    90
1070
     1
1002
}
  0
DIMENSION
  5
C64
102
{ACAD_XDICTIONARY
360
C65
102
}
102
{ACAD_REACTORS
330
C66
102
}
330
1F
100
AcDbEntity
  8
0
 62
     6
100
AcDbDimension
  2
*D23
 10
122.9245440069951
 20
86.98208918727161
 30
0.0
 11
121.7995440069951
 21
82.1428034729859
 31
0.0
 70
    32
  1
%%C<>
 71
     5
 42
6.499999901279807
  3
BASE60
100
AcDbAlignedDimension
 13
105.5351192829186
 23
93.48208908855141
 33
0.0
 14
105.5351192829186
 24
86.98208918727161
 34
0.0
 50
90.0
100
AcDbRotatedDimension
1001
ACAD
1000
DSTYLE
1002
{
1070
    90
1070
     1
1002
}
  0
DIMENSION
  5
C67
102
{ACAD_XDICTIONARY
360
C68
102
}
102
{ACAD_REACTORS
330
C69
102
}
330
1F
100
AcDbEntity
  8
0
 62
     6
100
AcDbDimension
  2
*D24
 10
109.2851231572206
 20
100.6535910157084
 30
0.0
 11
118.9458401251439
 21
100.6535910157084
 31
0.0
 70
   160
 71
     5
 42
5.500002682209014
  3
BASE60
100
AcDbAlignedDimension
 13
114.7851258394296
 23
90.23208925432696
 33
0.0
 14
109.2851231572206
 24
87.23208922824985
 34
0.0
100
AcDbRotatedDimension
1001
ACAD
1000
DSTYLE
1002
{
1070
    90
1070
     1
1002
}
  0
DIMENSION
  5
C6A
102
{ACAD_XDICTIONARY
360
C6B
102
}
102
{ACAD_REACTORS
330
C6C
102
}
330
1F
100
AcDbEntity
  8
0
 62
     6
100
AcDbDimension
  2
*D25
 10
82.28512238236021
 20
104.2931071948483
 30
0.0
 11
98.53512411089491
 21
105.4181071948484
 31
0.0
 70
    32
 71
     5
 42
32.5000034570694
  3
BASE60
100
AcDbAlignedDimension
 13
114.7851258394296
 23
90.23208925432696
 33
0.0
 14
82.28512238236021
 24
90.23208923768377
 34
0.0
100
AcDbRotatedDimension
1001
ACAD
1000
DSTYLE
1002
{
1070
    90
1070
     1
1002
}
  0
DIMENSION
  5
C6D
330
1F
100
AcDbEntity
  8
0
 62
     6
100
AcDbDimension
  2
*D15
 10
109.2851232704703
 20
58.58382279894468
 30
0.0
 11
98.78512282641622
 21
59.70882279894468
 31
0.0
 70
    32
 71
     5
 42
21.00000088810816
  3
BASE60
100
AcDbAlignedDimension
 13
88.28512238236214
 23
48.16232102091991
 33
0.0
 14
109.2851232704703
 24
45.16232074536955
 34
0.0
100
AcDbRotatedDimension
1001
ACAD
1000
DSTYLE
1002
{
1070
    90
1070
     1
1002
}
  0
DIMENSION
  5
C6E
330
1F
100
AcDbEntity
  8
0
 62
     6
100
AcDbDimension
  2
*D16
 10
76.53339918145673
 20
42.16232102091978
 30
0.0
 11
75.40839918145671
 21
48.16232102091992
 31
0.0
 70
    32
  1
%%C<>
 71
     5
 42
12.00000000000025
  3
BASE60
100
AcDbAlignedDimension
 13
88.28512238236214
 23
54.16232102092003
 33
0.0
 14
88.28512238236214
 24
42.16232102091978
 34
0.0
 50
90.0
100
AcDbRotatedDimension
1001
ACAD
1000
DSTYLE
1002
{
1070
    90
1070
     1
1002
}
  0
MULTILEADER
  5
C6F
102
{ACAD_XDICTIONARY
360
E3E
102
}
330
1F
100
AcDbEntity
  8
0
 62
     6
 92
      784
310
100300001A0000000C00000016000000020000C30C00000033000000000000000C00000013000000993A00000C00000016000000020000C3A40000000B00000086AD77B39BD2514038FF434B93464240000000000000000000000000000000000000000000000000000000000000F03F000000000000F03F00000000000000
310
0000000000000000005C552B323230350007000000010000000000000000000040000000000000F03F0000000000000000000000000000F03F000000000000000000000000000000000000000049534F43504555520000000000FFFFFF0C00000016000000020000C39C0000000B000000B9E0AAE6CE45524038FF434B9346
310
4240000000000000000000000000000000000000000000000000000000000000F03F000000000000F03F00000000000000000000000000000000332E300003000000010000000000000000000040000000000000F03F0000000000000000000000000000F03F0000000000000000000000000000000000000000B1BCB8B200
310
B80CD300C73E000C00000033000000000000000C00000010000000000000000C00000016000000010000C30C00000012000000FF7F00000C00000013000000010000000C00000014000000010000005400000007000000030000003E9DF69D8CA95540D9B4D71C73BB4640000000000000000098E6F2713F125640F4266AEF
310
C65447400000000000000000CBAC379412C8554077DEEF36D37F464000000000000000000C00000013000000891300003C000000060000000200000005251799CFB85540A8C9E329A39D4640000000000000000078CC25C665D753401426962CD9C3424000000000000000000C00000013000000112700003C000000060000
310
000200000078CC25C665D753401426962CD9C34240000000000000000078CC25C6655753401426962CD9C3424000000000000000000C00000016000000010000C30C00000012000000FF7F00000C00000017000000000000000C000000130000009A3A00000C00000016000000060000C30C00000012000000FF7F00000C00
310
000017000000FFFFFFFF0C0000003300000000000000
100
AcDbMLeader
300
CONTEXT_DATA{
 40
0.8
 10
71.09075323760305
 20
37.53006512958033
 30
0.0
 41
2.0
140
2.0
145
0.4
174
     1
175
     1
176
     2
177
     0
290
     1
304
{\fISOCPEUR|b0|i0|c0|p34;%%C}3.0
 11
0.0
 21
0.0
 31
1.0
340
9FF
 12
76.96558679286273
 22
38.55403317219018
 32
0.0
 13
1.0
 23
0.0
 33
0.0
 42
0.0
 43
0.0
 44
0.0
 45
1.0
170
     1
 90
-1023410174
171
     3
172
     5
 91
-1073741824
141
0.0
 92
        0
291
     0
292
     0
173
     0
293
     0
142
0.0
143
0.0
294
     0
295
     0
296
     0
110
88.28512238236214
120
46.6623210209199
130
0.0
111
1.0
121
0.0
131
0.0
112
0.0
122
1.0
132
0.0
297
     0
302
LEADER{
290
     1
291
     1
 10
79.3655867928627
 20
37.53006512958033
 30
0.0
 11
-1.0
 21
0.0
 31
0.0
 90
        0
 40
2.0
304
LEADER_LINE{
 10
88.28512238236214
 20
46.6623210209199
 30
0.0
 91
        0
305
}
303
}
301
}
340
A08
 90
   279552
170
     1
 91
-1023410175
341
14
171
    -2
290
     1
291
     1
 41
2.5
 42
2.5
172
     2
343
9FF
173
     1
 95
        1
174
     1
175
     2
 92
-1023410174
292
     0
 93
-1056964608
 10
1.0
 20
1.0
 30
1.0
 43
0.0
176
     0
293
     0
294
     0
178
     0
179
     3
 45
0.8
1001
ACAD_MLEADERVER
1070
     2
  0
DIMENSION
  5
C70
330
1F
100
AcDbEntity
  8
0
 62
     6
100
AcDbDimension
  2
*D17
 10
119.3509954024865
 20
46.9123210322169
 30
0.0
 11
118.2259954024865
 21
41.10874960364549
 31
0.0
 70
    32
  1
M2.5
 71
     5
 42
2.499999944120645
  3
BASE60
100
AcDbAlignedDimension
 13
109.5369435814206
 23
49.41232097633755
 33
0.0
 14
109.5369435814206
 24
46.91232103221691
 34
0.0
 50
90.0
100
AcDbRotatedDimension
1001
ACAD
1000
DSTYLE
1002
{
1070
    90
1070
     1
1002
}
  0
DIMENSION
  5
C71
330
1F
100
AcDbEntity
  8
0
 62
     6
100
AcDbDimension
  2
*D18
 10
122.924544006997
 20
44.91232097050774
 30
0.0
 11
121.799544006997
 21
40.07303525622204
 31
0.0
 70
    32
  1
%%C<>
 71
     5
 42
6.499999901279807
  3
BASE60
100
AcDbAlignedDimension
 13
105.5351192829206
 23
51.41232087178756
 33
0.0
 14
105.5351192829206
 24
44.91232097050775
 34
0.0
 50
90.0
100
AcDbRotatedDimension
1001
ACAD
1000
DSTYLE
1002
{
1070
    90
1070
     1
1002
}
  0
DIMENSION
  5
C72
330
1F
100
AcDbEntity
  8
0
 62
     6
100
AcDbDimension
  2
*D19
 10
82.28512238236215
 20
62.22333897808463
 30
0.0
 11
97.78512411089657
 21
63.34833897808462
 31
0.0
 70
    32
 71
     5
 42
31.00000345706883
  3
BASE60
100
AcDbAlignedDimension
 13
113.285125839431
 23
48.16232100427729
 33
0.0
 14
82.28512238236215
 24
48.16232102091991
 34
0.0
100
AcDbRotatedDimension
1001
ACAD
1000
DSTYLE
1002
{
1070
    90
1070
     1
1002
}
  0
MTEXT
  5
C73
330
1F
100
AcDbEntity
  8
0
  6
Continuous
 62
     2
370
    18
100
AcDbMText
 10
28.46861342251373
 20
112.3481770665397
 30
0.0
 40
3.527777777777777
 41
0.0
 71
     1
 72
     1
  1
{\fGulim|b0|i0|c129|p50;로드엔드베어링(앞부분 체결)}
  7
SLDTEXTSTYLE0
 73
     1
 44
1.0
1001
ACAD
1000
MTEXTBEGIN
1070
    73
1070
     1
1070
    44
1040
1.0
1070
    74
1070
     0
1000
MTEXTEND
  0
MTEXT
  5
C74
330
1F
100
AcDbEntity
  8
0
  6
Continuous
 62
     2
370
    18
100
AcDbMText
 10
28.46861342251373
 20
69.27120533113631
 30
0.0
 40
3.527777777777777
 41
0.0
 71
     1
 72
     1
  1
{\fGulim|b0|i0|c129|p50;로드엔드베어링(뒷부분 체결)}
  7
SLDTEXTSTYLE0
 73
     1
 44
1.0
1001
ACAD
1000
MTEXTBEGIN
1070
    73
1070
     1
1070
    44
1040
1.0
1070
    74
1070
     0
1000
MTEXTEND
  0
DIMENSION
  5
C75
330
1F
100
AcDbEntity
  8
0
 62
     6
100
AcDbDimension
  2
*D20
 10
113.285125839431
 20
58.58382279894468
 30
0.0
 11
117.4458401251452
 21
59.70882279894468
 31
0.0
 70
    32
 71
     5
 42
4.000002568960667
  3
BASE60
100
AcDbAlignedDimension
 13
109.2851232704703
 23
58.58382279894468
 33
0.0
 14
113.285125839431
 24
62.22333897808463
 34
0.0
100
AcDbRotatedDimension
1001
ACAD
1000
DSTYLE
1002
{
1070
    90
1070
     1
1002
}
  0
LINE
  5
C76
330
1F
100
AcDbEntity
  8
0
  6
Continuous
 62
     7
370
    25
100
AcDbLine
 10
109.6698924777085
 20
91.7320892673654
 30
0.0
 11
109.5870271203096
 21
91.7320892673654
 31
0.0
  0
LINE
  5
C77
330
1F
100
AcDbEntity
  8
0
  6
Continuous
 62
     7
370
    25
100
AcDbLine
 10
109.5870271203096
 20
88.73208924128837
 30
0.0
 11
109.6698924777085
 21
88.73208924128837
 31
0.0
  0
LINE
  5
C78
330
1F
100
AcDbEntity
  8
0
  6
Continuous
 62
     7
370
    25
100
AcDbLine
 10
109.6698924777085
 20
88.73208924128837
 30
0.0
 11
109.8663046834047
 21
89.01258916526264
 31
0.0
  0
LINE
  5
C79
330
1F
100
AcDbEntity
  8
0
  6
Continuous
 62
     7
370
    25
100
AcDbLine
 10
109.8663046834047
 20
91.45158934339113
 30
0.0
 11
109.6698924777085
 21
91.7320892673654
 31
0.0
  0
LINE
  5
C7A
330
1F
100
AcDbEntity
  8
0
  6
Continuous
 62
     7
370
    25
100
AcDbLine
 10
109.5870271203096
 20
91.7320892673654
 30
0.0
 11
109.3906149146135
 21
91.45158934339113
 31
0.0
  0
LINE
  5
C7B
330
1F
100
AcDbEntity
  8
0
  6
Continuous
 62
     7
370
    25
100
AcDbLine
 10
109.3906149146135
 20
89.01258916526264
 30
0.0
 11
109.5870271203096
 21
88.73208924128837
 31
0.0
  0
LINE
  5
C7C
330
1F
100
AcDbEntity
  8
0
  6
Continuous
 62
     7
370
    25
100
AcDbLine
 10
109.8663046834047
 20
91.45158934339113
 30
0.0
 11
109.8663046834047
 21
89.01258916526264
 31
0.0
  0
LINE
  5
C7D
330
1F
100
AcDbEntity
  8
0
  6
Continuous
 62
     7
370
    25
100
AcDbLine
 10
109.3906149146135
 20
91.45158934339113
 30
0.0
 11
109.3906149146135
 21
89.01258916526264
 31
0.0
  0
LINE
  5
C7E
330
1F
100
AcDbEntity
  8
0
  6
Continuous
 62
     7
370
    25
100
AcDbLine
 10
109.6698924777085
 20
91.7320892673654
 30
0.0
 11
109.6698924777085
 21
88.73208924128837
 31
0.0
  0
LINE
  5
C7F
330
1F
100
AcDbEntity
  8
0
  6
Continuous
 62
     7
370
    25
100
AcDbLine
 10
109.5870271203096
 20
91.7320892673654
 30
0.0
 11
109.5870271203096
 21
88.73208924128837
 31
0.0
  0
LINE
  5
C80
330
1F
100
AcDbEntity
  8
0
  6
Continuous
 62
     7
370
    25
100
AcDbLine
 10
109.2851231572204
 20
88.86193442451602
 30
0.0
 11
109.3906149146135
 21
89.01258916526264
 31
0.0
  0
LINE
  5
C81
330
1F
100
AcDbEntity
  8
0
  6
Continuous
 62
     7
370
    25
100
AcDbLine
 10
109.3906149146135
 20
91.45158934339113
 30
0.0
 11
109.2851231572204
 21
91.60224408413778
 31
0.0
  0
ENDSEC
  0
SECTION
  2
OBJECTS
  0
DICTIONARY
  5
C
330
0
100
AcDbDictionary
281
     1
  3
ACAD_CIP_PREVIOUS_PRODUCT_INFO
350
964
  3
ACAD_COLOR
350
95B
  3
ACAD_GROUP
350
D
  3
ACAD_LAYOUT
350
1A
  3
ACAD_MATERIAL
350
929
  3
ACAD_MLEADERSTYLE
350
95E
  3
ACAD_MLINESTYLE
350
17
  3
ACAD_PLOTSETTINGS
350
19
  3
ACAD_PLOTSTYLENAME
350
E
  3
ACAD_SCALELIST
350
47
  3
ACAD_TABLESTYLE
350
95C
  3
ACAD_VISUALSTYLE
350
942
  3
ACDB_RECOMPOSE_DATA
350
E40
  3
AcDbVariableDictionary
350
DDF
  3
DWGPROPS
350
E41
  0
DICTIONARY
  5
A09
330
2
100
AcDbDictionary
280
     1
281
     1
  3
ACAD_LAYERSTATES
360
A0A
  0
DICTIONARY
  5
DCD
330
10
100
AcDbDictionary
280
     1
281
     1
  3
ADSK_XREC_LAYER_RECONCILED
360
DCE
  0
DICTIONARY
  5
DCF
330
73
100
AcDbDictionary
280
     1
281
     1
  3
ADSK_XREC_LAYER_RECONCILED
360
DD0
  0
DICTIONARY
  5
DD1
330
74
100
AcDbDictionary
280
     1
281
     1
  3
ADSK_XREC_LAYER_RECONCILED
360
DD2
  0
DICTIONARY
  5
DD3
330
75
100
AcDbDictionary
280
     1
281
     1
  3
ADSK_XREC_LAYER_RECONCILED
360
DD4
  0
DICTIONARY
  5
DD5
330
76
100
AcDbDictionary
280
     1
281
     1
  3
ADSK_XREC_LAYER_RECONCILED
360
DD6
  0
DICTIONARY
  5
DD7
330
77
100
AcDbDictionary
280
     1
281
     1
  3
ADSK_XREC_LAYER_RECONCILED
360
DD8
  0
DICTIONARY
  5
DD9
330
78
100
AcDbDictionary
280
     1
281
     1
  3
ADSK_XREC_LAYER_RECONCILED
360
DDA
  0
DICTIONARY
  5
DDB
330
79
100
AcDbDictionary
280
     1
281
     1
  3
ADSK_XREC_LAYER_RECONCILED
360
DDC
  0
DICTIONARY
  5
DDD
330
7A
100
AcDbDictionary
280
     1
281
     1
  3
ADSK_XREC_LAYER_RECONCILED
360
DDE
  0
DICTIONARY
  5
C5D
330
C5C
100
AcDbDictionary
280
     1
281
     1
  3
ACAD_DIMASSOC
360
C5E
  0
DICTIONARY
  5
C60
330
C5F
100
AcDbDictionary
280
     1
281
     1
  3
ACAD_DIMASSOC
360
C61
  0
DICTIONARY
  5
E3C
330
C62
100
AcDbDictionary
280
     1
281
     1
  3
ACAD_XREC_ROUNDTRIP
360
E3D
  0
DICTIONARY
  5
C65
330
C64
100
AcDbDictionary
280
     1
281
     1
  3
ACAD_DIMASSOC
360
C66
  0
DICTIONARY
  5
C68
330
C67
100
AcDbDictionary
280
     1
281
     1
  3
ACAD_DIMASSOC
360
C69
  0
DICTIONARY
  5
C6B
330
C6A
100
AcDbDictionary
280
     1
281
     1
  3
ACAD_DIMASSOC
360
C6C
  0
DICTIONARY
  5
E3E
330
C6F
100
AcDbDictionary
280
     1
281
     1
  3
ACAD_XREC_ROUNDTRIP
360
E3F
  0
XRECORD
  5
964
102
{ACAD_REACTORS
330
C
102
}
330
C
100
AcDbXrecord
280
     1
300
ACD
300
2012
300
IDSU_F_S
  0
DICTIONARY
  5
95B
102
{ACAD_REACTORS
330
C
102
}
330
C
100
AcDbDictionary
281
     1
  0
DICTIONARY
  5
D
102
{ACAD_REACTORS
330
C
102
}
330
C
100
AcDbDictionary
281
     1
  0
DICTIONARY
  5
1A
102
{ACAD_REACTORS
330
C
102
}
330
C
100
AcDbDictionary
281
     1
  3
Layout1
350
1E
  3
Layout2
350
26
  3
Model
350
22
  0
DICTIONARY
  5
929
102
{ACAD_REACTORS
330
C
102
}
330
C
100
AcDbDictionary
281
     1
  3
ByBlock
350
932
  3
ByLayer
350
92A
  3
Global
350
93A
  0
DICTIONARY
  5
95E
102
{ACAD_REACTORS
330
C
102
}
330
C
100
AcDbDictionary
281
     1
  3
BASE80
350
A08
  3
Standard
350
95F
  0
DICTIONARY
  5
17
102
{ACAD_REACTORS
330
C
102
}
330
C
100
AcDbDictionary
281
     1
  3
Standard
350
18
  0
DICTIONARY
  5
19
102
{ACAD_REACTORS
330
C
102
}
330
C
100
AcDbDictionary
281
     1
  0
ACDBDICTIONARYWDFLT
  5
E
102
{ACAD_REACTORS
330
C
102
}
330
C
100
AcDbDictionary
281
     1
  3
Normal
350
F
100
AcDbDictionaryWithDefault
340
F
  0
DICTIONARY
  5
47
102
{ACAD_REACTORS
330
C
102
}
330
C
100
AcDbDictionary
281
     1
  3
A0
350
48
  3
A1
350
49
  3
A2
350
4A
  3
A3
350
4B
  3
A4
350
4C
  3
A5
350
4D
  3
A6
350
4E
  3
A7
350
4F
  3
A8
350
50
  3
A9
350
51
  3
B0
350
52
  3
B1
350
53
  3
B2
350
54
  3
B3
350
55
  3
B4
350
56
  3
B5
350
57
  3
B6
350
58
  3
B7
350
59
  3
B8
350
5A
  3
B9
350
5B
  3
C0
350
5C
  3
C1
350
5D
  3
C2
350
5E
  3
C3
350
5F
  3
C4
350
60
  3
C5
350
61
  3
C6
350
62
  3
C7
350
63
  3
C8
350
64
  3
C9
350
65
  3
D0
350
66
  3
D1
350
67
  3
D2
350
68
  0
DICTIONARY
  5
95C
102
{ACAD_REACTORS
330
C
102
}
330
C
100
AcDbDictionary
281
     1
  3
Standard
350
95D
  0
DICTIONARY
  5
942
102
{ACAD_REACTORS
330
C
102
}
330
C
100
AcDbDictionary
281
     1
  3
2dWireframe
350
948
  3
Basic
350
947
  3
Brighten
350
94E
  3
ColorChange
350
952
  3
Conceptual
350
94B
  3
Dim
350
94D
  3
EdgeColorOff
350
95A
  3
Facepattern
350
951
  3
Flat
350
943
  3
FlatWithEdges
350
944
  3
Gouraud
350
945
  3
GouraudWithEdges
350
946
  3
Hidden
350
94A
  3
JitterOff
350
958
  3
Linepattern
350
950
  3
OverhangOff
350
959
  3
Realistic
350
94C
  3
Shaded
350
957
  3
Shaded with edges
350
956
  3
Shades of Gray
350
953
  3
Sketchy
350
954
  3
Thicken
350
94F
  3
Wireframe
350
949
  3
X-Ray
350
955
  0
XRECORD
  5
E40
102
{ACAD_REACTORS
330
C
102
}
330
C
100
AcDbXrecord
280
     1
 90
        1
330
95D
  0
DICTIONARY
  5
DDF
102
{ACAD_REACTORS
330
C
102
}
330
C
100
AcDbDictionary
281
     1
  3
CANNOSCALE
350
DE2
  3
CMLEADERSTYLE
350
DE1
  3
CTABLESTYLE
350
DE0
  3
DIMASSOC
350
DE5
  3
INDEXCTL
350
DE4
  3
SORTENTS
350
DE3
  3
XCLIPFRAME
350
DE6
  0
XRECORD
  5
E41
102
{ACAD_REACTORS
330
C
102
}
330
C
100
AcDbXrecord
280
     1
  1
DWGPROPS COOKIE
  2

  3

  4

  6

  7

  8
sbs
  9

300
=
301
=
302
=
303
=
304
=
305
=
306
=
307
=
308
=
309
=
 40
0.0004345486111111
 41
2458232.723958901
 42
2458408.717022581
  1

 90
        0
  0
DICTIONARY
  5
A0A
102
{ACAD_REACTORS
330
A09
102
}
330
A09
100
AcDbDictionary
281
     1
  0
XRECORD
  5
DCE
102
{ACAD_REACTORS
330
DCD
102
}
330
DCD
100
AcDbXrecord
280
     1
290
     1
  0
XRECORD
  5
DD0
102
{ACAD_REACTORS
330
DCF
102
}
330
DCF
100
AcDbXrecord
280
     1
290
     1
  0
XRECORD
  5
DD2
102
{ACAD_REACTORS
330
DD1
102
}
330
DD1
100
AcDbXrecord
280
     1
290
     1
  0
XRECORD
  5
DD4
102
{ACAD_REACTORS
330
DD3
102
}
330
DD3
100
AcDbXrecord
280
     1
290
     1
  0
XRECORD
  5
DD6
102
{ACAD_REACTORS
330
DD5
102
}
330
DD5
100
AcDbXrecord
280
     1
290
     1
  0
XRECORD
  5
DD8
102
{ACAD_REACTORS
330
DD7
102
}
330
DD7
100
AcDbXrecord
280
     1
290
     1
  0
XRECORD
  5
DDA
102
{ACAD_REACTORS
330
DD9
102
}
330
DD9
100
AcDbXrecord
280
     1
290
     1
  0
XRECORD
  5
DDC
102
{ACAD_REACTORS
330
DDB
102
}
330
DDB
100
AcDbXrecord
280
     1
290
     1
  0
XRECORD
  5
DDE
102
{ACAD_REACTORS
330
DDD
102
}
330
DDD
100
AcDbXrecord
280
     1
290
     1
  0
DIMASSOC
  5
C5E
102
{ACAD_REACTORS
330
C5D
102
}
330
C5D
100
AcDbDimAssoc
330
C5C
 90
        3
 70
     0
 71
     0
  1
AcDbOsnapPointRef
 72
     3
331
C25
 73
     2
 91
        0
 40
0.0
 10
0.0
 20
0.0
 30
0.0
 75
     0
  1
AcDbOsnapPointRef
 72
    13
331
C30
 73
     2
 91
        0
 40
0.0
 10
0.0
 20
0.0
 30
2.000000000000000E+50
 75
     0
  0
DIMASSOC
  5
C61
102
{ACAD_REACTORS
330
C60
102
}
330
C60
100
AcDbDimAssoc
330
C5F
 90
        3
 70
     0
 71
     0
  1
AcDbOsnapPointRef
 72
     1
331
BC5
 73
     2
 91
        0
 40
1.570796326794896
 10
0.0
 20
0.0
 30
2.000000000000000E+50
 75
     0
  1
AcDbOsnapPointRef
 72
    13
331
BC6
 73
     2
 91
        0
 40
4.712388980384689
 10
0.0
 20
0.0
 30
2.000000000000000E+50
 75
     0
  0
XRECORD
  5
E3D
102
{ACAD_REACTORS
330
E3C
102
}
330
E3C
100
AcDbXrecord
280
     1
102
ACAD_ROUNDTRIP_2012_MLEADER
295
     1
  0
DIMASSOC
  5
C66
102
{ACAD_REACTORS
330
C65
102
}
330
C65
100
AcDbDimAssoc
330
C64
 90
        3
 70
     0
 71
     0
  1
AcDbOsnapPointRef
 72
     1
331
C53
 73
     2
 91
        0
 40
1.0
 10
0.0
 20
0.0
 30
2.000000000000000E+50
 75
     0
  1
AcDbOsnapPointRef
 72
    13
331
C53
 73
     2
 91
        0
 40
0.0
 10
0.0
 20
0.0
 30
2.000000000000000E+50
 75
     0
  0
DIMASSOC
  5
C69
102
{ACAD_REACTORS
330
C68
102
}
330
C68
100
AcDbDimAssoc
330
C67
 90
        3
 70
     0
 71
     0
  1
AcDbOsnapPointRef
 72
     2
331
BFF
 73
     2
 91
        0
 40
0.5
 10
0.0
 20
0.0
 30
0.0
 75
     0
  1
AcDbOsnapPointRef
 72
    13
331
C30
 73
     2
 91
        0
 40
0.0
 10
0.0
 20
0.0
 30
2.000000000000000E+50
 75
     0
  0
DIMASSOC
  5
C6C
102
{ACAD_REACTORS
330
C6B
102
}
330
C6B
100
AcDbDimAssoc
330
C6A
 90
        3
 70
     0
 71
     0
  1
AcDbOsnapPointRef
 72
     2
331
BFF
 73
     2
 91
        0
 40
0.5
 10
0.0
 20
0.0
 30
0.0
 75
     0
  1
AcDbOsnapPointRef
 72
     2
331
BC7
 73
     2
 91
        0
 40
3.141592653589793
 10
0.0
 20
0.0
 30
0.0
 75
     0
  0
XRECORD
  5
E3F
102
{ACAD_REACTORS
330
E3E
102
}
330
E3E
100
AcDbXrecord
280
     1
102
ACAD_ROUNDTRIP_2012_MLEADER
295
     1
  0
LAYOUT
  5
1E
102
{ACAD_XDICTIONARY
360
E42
102
}
102
{ACAD_REACTORS
330
1A
102
}
330
1A
100
AcDbPlotSettings
  1

  2
none_device
  4

  6

 40
0.0
 41
0.0
 42
0.0
 43
0.0
 44
0.0
 45
0.0
 46
0.0
 47
0.0
 48
0.0
 49
0.0
140
0.0
141
0.0
142
1.0
143
1.0
 70
   688
 72
     1
 73
     0
 74
     5
  7

 75
    16
147
1.0
148
0.0
149
0.0
100
AcDbLayout
  1
Layout1
 70
     1
 71
     1
 10
0.0
 20
0.0
 11
420.0
 21
297.0
 12
0.0
 22
0.0
 32
0.0
 14
1.000000000000000E+20
 24
1.000000000000000E+20
 34
1.000000000000000E+20
 15
-1.000000000000000E+20
 25
-1.000000000000000E+20
 35
-1.000000000000000E+20
146
0.0
 13
0.0
 23
0.0
 33
0.0
 16
1.0
 26
0.0
 36
0.0
 17
0.0
 27
1.0
 37
0.0
 76
     0
330
1B
  0
LAYOUT
  5
26
102
{ACAD_XDICTIONARY
360
E46
102
}
102
{ACAD_REACTORS
330
1A
102
}
330
1A
100
AcDbPlotSettings
  1

  2
none_device
  4

  6

 40
0.0
 41
0.0
 42
0.0
 43
0.0
 44
0.0
 45
0.0
 46
0.0
 47
0.0
 48
0.0
 49
0.0
140
0.0
141
0.0
142
1.0
143
1.0
 70
   688
 72
     1
 73
     0
 74
     5
  7

 75
    16
147
1.0
148
0.0
149
0.0
100
AcDbLayout
  1
Layout2
 70
     1
 71
     2
 10
0.0
 20
0.0
 11
0.0
 21
0.0
 12
0.0
 22
0.0
 32
0.0
 14
0.0
 24
0.0
 34
0.0
 15
0.0
 25
0.0
 35
0.0
146
0.0
 13
0.0
 23
0.0
 33
0.0
 16
1.0
 26
0.0
 36
0.0
 17
0.0
 27
1.0
 37
0.0
 76
     0
330
23
  0
LAYOUT
  5
22
102
{ACAD_XDICTIONARY
360
E44
102
}
102
{ACAD_REACTORS
330
1A
102
}
330
1A
100
AcDbPlotSettings
  1

  2
none_device
  4
Letter_(8.50_x_11.00_Inches)
  6

 40
6.349999999999999
 41
6.349999999999999
 42
6.350005079999999
 43
6.350005079999999
 44
215.9
 45
279.4
 46
0.0
 47
0.0
 48
0.0
 49
0.0
140
0.0
141
0.0
142
1.0
143
1.0
 70
  1712
 72
     1
 73
     0
 74
     0
  7

 75
     0
147
1.0
148
0.0
149
0.0
100
AcDbLayout
  1
Model
 70
     1
 71
     0
 10
0.0
 20
0.0
 11
297.0
 21
210.0
 12
0.0
 22
0.0
 32
0.0
 14
0.0
 24
0.0
 34
0.0
 15
297.0
 25
210.0
 35
0.0
146
0.0
 13
0.0
 23
0.0
 33
0.0
 16
1.0
 26
0.0
 36
0.0
 17
0.0
 27
1.0
 37
0.0
 76
     0
330
1F
331
29
  0
MATERIAL
  5
932
102
{ACAD_XDICTIONARY
360
933
102
}
102
{ACAD_REACTORS
330
929
102
}
330
929
100
AcDbMaterial
  1
ByBlock
 72
     0
 43
0.0008202099737533
 43
0.0
 43
0.0
 43
0.0
 43
0.0
 43
0.0008202099737533
 43
0.0
 43
0.0
 43
0.0
 43
0.0
 43
1.0
 43
0.0
 43
0.0
 43
0.0
 43
0.0
 43
1.0
 77
     0
 47
0.0008202099737533
 47
0.0
 47
0.0
 47
0.0
 47
0.0
 47
0.0008202099737533
 47
0.0
 47
0.0
 47
0.0
 47
0.0
 47
1.0
 47
0.0
 47
0.0
 47
0.0
 47
0.0
 47
1.0
171
     0
 49
0.0008202099737533
 49
0.0
 49
0.0
 49
0.0
 49
0.0
 49
0.0008202099737533
 49
0.0
 49
0.0
 49
0.0
 49
0.0
 49
1.0
 49
0.0
 49
0.0
 49
0.0
 49
0.0
 49
1.0
175
     0
142
0.0008202099737533
142
0.0
142
0.0
142
0.0
142
0.0
142
0.0008202099737533
142
0.0
142
0.0
142
0.0
142
0.0
142
1.0
142
0.0
142
0.0
142
0.0
142
0.0
142
1.0
179
     0
144
0.0008202099737533
144
0.0
144
0.0
144
0.0
144
0.0
144
0.0008202099737533
144
0.0
144
0.0
144
0.0
144
0.0
144
1.0
144
0.0
144
0.0
144
0.0
144
0.0
144
1.0
147
0.0008202099737533
147
0.0
147
0.0
147
0.0
147
0.0
147
0.0008202099737533
147
0.0
147
0.0
147
0.0
147
0.0
147
1.0
147
0.0
147
0.0
147
0.0
147
0.0
147
1.0
  0
MATERIAL
  5
92A
102
{ACAD_XDICTIONARY
360
92B
102
}
102
{ACAD_REACTORS
330
929
102
}
330
929
100
AcDbMaterial
  1
ByLayer
 72
     0
 43
0.0008202099737533
 43
0.0
 43
0.0
 43
0.0
 43
0.0
 43
0.0008202099737533
 43
0.0
 43
0.0
 43
0.0
 43
0.0
 43
1.0
 43
0.0
 43
0.0
 43
0.0
 43
0.0
 43
1.0
 77
     0
 47
0.0008202099737533
 47
0.0
 47
0.0
 47
0.0
 47
0.0
 47
0.0008202099737533
 47
0.0
 47
0.0
 47
0.0
 47
0.0
 47
1.0
 47
0.0
 47
0.0
 47
0.0
 47
0.0
 47
1.0
171
     0
 49
0.0008202099737533
 49
0.0
 49
0.0
 49
0.0
 49
0.0
 49
0.0008202099737533
 49
0.0
 49
0.0
 49
0.0
 49
0.0
 49
1.0
 49
0.0
 49
0.0
 49
0.0
 49
0.0
 49
1.0
175
     0
142
0.0008202099737533
142
0.0
142
0.0
142
0.0
142
0.0
142
0.0008202099737533
142
0.0
142
0.0
142
0.0
142
0.0
142
1.0
142
0.0
142
0.0
142
0.0
142
0.0
142
1.0
179
     0
144
0.0008202099737533
144
0.0
144
0.0
144
0.0
144
0.0
144
0.0008202099737533
144
0.0
144
0.0
144
0.0
144
0.0
144
1.0
144
0.0
144
0.0
144
0.0
144
0.0
144
1.0
147
0.0008202099737533
147
0.0
147
0.0
147
0.0
147
0.0
147
0.0008202099737533
147
0.0
147
0.0
147
0.0
147
0.0
147
1.0
147
0.0
147
0.0
147
0.0
147
0.0
147
1.0
  0
MATERIAL
  5
93A
102
{ACAD_XDICTIONARY
360
93B
102
}
102
{ACAD_REACTORS
330
929
102
}
330
929
100
AcDbMaterial
  1
Global
 72
     0
 43
0.0008202099737533
 43
0.0
 43
0.0
 43
0.0
 43
0.0
 43
0.0008202099737533
 43
0.0
 43
0.0
 43
0.0
 43
0.0
 43
1.0
 43
0.0
 43
0.0
 43
0.0
 43
0.0
 43
1.0
 77
     0
 47
0.0008202099737533
 47
0.0
 47
0.0
 47
0.0
 47
0.0
 47
0.0008202099737533
 47
0.0
 47
0.0
 47
0.0
 47
0.0
 47
1.0
 47
0.0
 47
0.0
 47
0.0
 47
0.0
 47
1.0
171
     0
 49
0.0008202099737533
 49
0.0
 49
0.0
 49
0.0
 49
0.0
 49
0.0008202099737533
 49
0.0
 49
0.0
 49
0.0
 49
0.0
 49
1.0
 49
0.0
 49
0.0
 49
0.0
 49
0.0
 49
1.0
175
     0
142
0.0008202099737533
142
0.0
142
0.0
142
0.0
142
0.0
142
0.0008202099737533
142
0.0
142
0.0
142
0.0
142
0.0
142
1.0
142
0.0
142
0.0
142
0.0
142
0.0
142
1.0
179
     0
144
0.0008202099737533
144
0.0
144
0.0
144
0.0
144
0.0
144
0.0008202099737533
144
0.0
144
0.0
144
0.0
144
0.0
144
1.0
144
0.0
144
0.0
144
0.0
144
0.0
144
1.0
147
0.0008202099737533
147
0.0
147
0.0
147
0.0
147
0.0
147
0.0008202099737533
147
0.0
147
0.0
147
0.0
147
0.0
147
1.0
147
0.0
147
0.0
147
0.0
147
0.0
147
1.0
  0
MLEADERSTYLE
  5
A08
102
{ACAD_XDICTIONARY
360
E36
102
}
102
{ACAD_REACTORS
330
B24
330
B31
330
95E
330
C62
330
C6F
102
}
330
95E
100
AcDbMLeaderStyle
170
     2
171
     1
172
     0
 90
        2
 40
0.0
 41
0.0
173
     1
 91
-1023410175
340
14
 92
       -2
290
     1
 42
0.5
291
     1
 43
2.5
  3
Standard
 44
2.5
300

342
9FF
174
     1
178
     1
175
     1
176
     0
 93
-1023410174
 45
2.5
292
     0
297
     0
 46
4.0
 94
-1056964608
 47
1.0
 49
1.0
140
1.0
293
     1
141
0.0
294
     1
177
     0
142
0.8
295
     0
296
     0
143
3.75
1001
ACAD_MLEADERVER
1070
     2
  0
MLEADERSTYLE
  5
95F
102
{ACAD_XDICTIONARY
360
E34
102
}
102
{ACAD_REACTORS
330
95E
102
}
330
95E
100
AcDbMLeaderStyle
170
     2
171
     1
172
     0
 90
        2
 40
0.0
 41
0.0
173
     1
 91
-1056964608
340
14
 92
       -2
290
     1
 42
2.0
291
     1
 43
0.36
  3
Standard
 44
4.0
300

342
11
174
     1
178
     6
175
     1
176
     0
 93
-1056964608
 45
4.0
292
     0
297
     0
 46
4.0
 94
-1056964608
 47
1.0
 49
1.0
140
1.0
293
     1
141
0.0
294
     1
177
     0
142
1.0
295
     0
296
     0
143
0.125
1001
ACAD_MLEADERVER
1070
     2
  0
MLINESTYLE
  5
18
102
{ACAD_REACTORS
330
17
102
}
330
17
100
AcDbMlineStyle
  2
STANDARD
 70
     0
  3

 62
   256
 51
90.0
 52
90.0
 71
     2
 49
0.5
 62
   256
  6
BYLAYER
 49
-0.5
 62
   256
  6
BYLAYER
  0
ACDBPLACEHOLDER
  5
F
102
{ACAD_REACTORS
330
E
102
}
330
E
  0
SCALE
  5
48
102
{ACAD_REACTORS
330
47
102
}
330
47
100
AcDbScale
 70
     0
300
1:1
140
1.0
141
1.0
290
     1
  0
SCALE
  5
49
102
{ACAD_REACTORS
330
47
102
}
330
47
100
AcDbScale
 70
     0
300
1:2
140
1.0
141
2.0
290
     0
  0
SCALE
  5
4A
102
{ACAD_REACTORS
330
47
102
}
330
47
100
AcDbScale
 70
     0
300
1:4
140
1.0
141
4.0
290
     0
  0
SCALE
  5
4B
102
{ACAD_REACTORS
330
47
102
}
330
47
100
AcDbScale
 70
     0
300
1:5
140
1.0
141
5.0
290
     0
  0
SCALE
  5
4C
102
{ACAD_REACTORS
330
47
102
}
330
47
100
AcDbScale
 70
     0
300
1:8
140
1.0
141
8.0
290
     0
  0
SCALE
  5
4D
102
{ACAD_REACTORS
330
47
102
}
330
47
100
AcDbScale
 70
     0
300
1:10
140
1.0
141
10.0
290
     0
  0
SCALE
  5
4E
102
{ACAD_REACTORS
330
47
102
}
330
47
100
AcDbScale
 70
     0
300
1:16
140
1.0
141
16.0
290
     0
  0
SCALE
  5
4F
102
{ACAD_REACTORS
330
47
102
}
330
47
100
AcDbScale
 70
     0
300
1:20
140
1.0
141
20.0
290
     0
  0
SCALE
  5
50
102
{ACAD_REACTORS
330
47
102
}
330
47
100
AcDbScale
 70
     0
300
1:30
140
1.0
141
30.0
290
     0
  0
SCALE
  5
51
102
{ACAD_REACTORS
330
47
102
}
330
47
100
AcDbScale
 70
     0
300
1:40
140
1.0
141
40.0
290
     0
  0
SCALE
  5
52
102
{ACAD_REACTORS
330
47
102
}
330
47
100
AcDbScale
 70
     0
300
1:50
140
1.0
141
50.0
290
     0
  0
SCALE
  5
53
102
{ACAD_REACTORS
330
47
102
}
330
47
100
AcDbScale
 70
     0
300
1:100
140
1.0
141
100.0
290
     0
  0
SCALE
  5
54
102
{ACAD_REACTORS
330
47
102
}
330
47
100
AcDbScale
 70
     0
300
2:1
140
2.0
141
1.0
290
     0
  0
SCALE
  5
55
102
{ACAD_REACTORS
330
47
102
}
330
47
100
AcDbScale
 70
     0
300
4:1
140
4.0
141
1.0
290
     0
  0
SCALE
  5
56
102
{ACAD_REACTORS
330
47
102
}
330
47
100
AcDbScale
 70
     0
300
8:1
140
8.0
141
1.0
290
     0
  0
SCALE
  5
57
102
{ACAD_REACTORS
330
47
102
}
330
47
100
AcDbScale
 70
     0
300
10:1
140
10.0
141
1.0
290
     0
  0
SCALE
  5
58
102
{ACAD_REACTORS
330
47
102
}
330
47
100
AcDbScale
 70
     0
300
100:1
140
100.0
141
1.0
290
     0
  0
SCALE
  5
59
102
{ACAD_REACTORS
330
47
102
}
330
47
100
AcDbScale
 70
     0
300
1/128" = 1'-0"
140
0.0078125
141
12.0
290
     0
  0
SCALE
  5
5A
102
{ACAD_REACTORS
330
47
102
}
330
47
100
AcDbScale
 70
     0
300
1/64" = 1'-0"
140
0.015625
141
12.0
290
     0
  0
SCALE
  5
5B
102
{ACAD_REACTORS
330
47
102
}
330
47
100
AcDbScale
 70
     0
300
1/32" = 1'-0"
140
0.03125
141
12.0
290
     0
  0
SCALE
  5
5C
102
{ACAD_REACTORS
330
47
102
}
330
47
100
AcDbScale
 70
     0
300
1/16" = 1'-0"
140
0.0625
141
12.0
290
     0
  0
SCALE
  5
5D
102
{ACAD_REACTORS
330
47
102
}
330
47
100
AcDbScale
 70
     0
300
3/32" = 1'-0"
140
0.09375
141
12.0
290
     0
  0
SCALE
  5
5E
102
{ACAD_REACTORS
330
47
102
}
330
47
100
AcDbScale
 70
     0
300
1/8" = 1'-0"
140
0.125
141
12.0
290
     0
  0
SCALE
  5
5F
102
{ACAD_REACTORS
330
47
102
}
330
47
100
AcDbScale
 70
     0
300
3/16" = 1'-0"
140
0.1875
141
12.0
290
     0
  0
SCALE
  5
60
102
{ACAD_REACTORS
330
47
102
}
330
47
100
AcDbScale
 70
     0
300
1/4" = 1'-0"
140
0.25
141
12.0
290
     0
  0
SCALE
  5
61
102
{ACAD_REACTORS
330
47
102
}
330
47
100
AcDbScale
 70
     0
300
3/8" = 1'-0"
140
0.375
141
12.0
290
     0
  0
SCALE
  5
62
102
{ACAD_REACTORS
330
47
102
}
330
47
100
AcDbScale
 70
     0
300
1/2" = 1'-0"
140
0.5
141
12.0
290
     0
  0
SCALE
  5
63
102
{ACAD_REACTORS
330
47
102
}
330
47
100
AcDbScale
 70
     0
300
3/4" = 1'-0"
140
0.75
141
12.0
290
     0
  0
SCALE
  5
64
102
{ACAD_REACTORS
330
47
102
}
330
47
100
AcDbScale
 70
     0
300
1" = 1'-0"
140
1.0
141
12.0
290
     0
  0
SCALE
  5
65
102
{ACAD_REACTORS
330
47
102
}
330
47
100
AcDbScale
 70
     0
300
1-1/2" = 1'-0"
140
1.5
141
12.0
290
     0
  0
SCALE
  5
66
102
{ACAD_REACTORS
330
47
102
}
330
47
100
AcDbScale
 70
     0
300
3" = 1'-0"
140
3.0
141
12.0
290
     0
  0
SCALE
  5
67
102
{ACAD_REACTORS
330
47
102
}
330
47
100
AcDbScale
 70
     0
300
6" = 1'-0"
140
6.0
141
12.0
290
     0
  0
SCALE
  5
68
102
{ACAD_REACTORS
330
47
102
}
330
47
100
AcDbScale
 70
     0
300
1'-0" = 1'-0"
140
12.0
141
12.0
290
     0
  0
TABLESTYLE
  5
95D
102
{ACAD_XDICTIONARY
360
E32
102
}
102
{ACAD_REACTORS
330
95C
102
}
330
95C
100
AcDbTableStyle
  3
Standard
 70
     0
 71
     0
 40
1.5
 41
1.5
280
     0
281
     0
  7
STANDARD
140
4.5
170
     2
 62
     0
 63
     7
283
     0
274
    -2
284
     1
 64
     0
275
    -2
285
     1
 65
     0
276
    -2
286
     1
 66
     0
277
    -2
287
     1
 67
     0
278
    -2
288
     1
 68
     0
279
    -2
289
     1
 69
     0
  7
STANDARD
140
6.0
170
     5
 62
     0
 63
     7
283
     0
274
    -2
284
     1
 64
     0
275
    -2
285
     1
 65
     0
276
    -2
286
     1
 66
     0
277
    -2
287
     1
 67
     0
278
    -2
288
     1
 68
     0
279
    -2
289
     1
 69
     0
  7
STANDARD
140
4.5
170
     5
 62
     0
 63
     7
283
     0
274
    -2
284
     1
 64
     0
275
    -2
285
     1
 65
     0
276
    -2
286
     1
 66
     0
277
    -2
287
     1
 67
     0
278
    -2
288
     1
 68
     0
279
    -2
289
     1
 69
     0
  0
VISUALSTYLE
  5
948
102
{ACAD_XDICTIONARY
360
E55
102
}
102
{ACAD_REACTORS
330
942
102
}
330
942
100
AcDbVisualStyle
  2
2dWireframe
 70
     4
 71
     0
 72
     2
 73
     0
 90
        0
 40
-0.6
 41
-30.0
 62
     5
 63
     7
 74
     1
 91
        4
 64
     7
 65
   257
 75
     1
175
     1
 42
1.0
 92
        0
 66
   257
 43
1.0
 76
     1
 77
     6
 78
     2
 67
     7
 79
     5
170
     0
171
     0
290
     0
174
     0
 93
        1
 44
0.0
173
     0
291
     0
 45
0.0
1001
ACAD
1000
AcDbSavedByObjectVersion
1070
     0
  0
VISUALSTYLE
  5
947
102
{ACAD_XDICTIONARY
360
E53
102
}
102
{ACAD_REACTORS
330
942
102
}
330
942
100
AcDbVisualStyle
  2
Basic
 70
     7
 71
     1
 72
     0
 73
     1
 90
        0
 40
-0.6
 41
-30.0
 62
     5
 63
     7
 74
     0
 91
        4
 64
     7
 65
   257
 75
     1
175
     1
 42
1.0
 92
        8
 66
     7
 43
1.0
 76
     1
 77
     6
 78
     2
 67
     7
 79
     5
170
     0
171
     0
290
     0
174
     0
 93
        1
 44
0.0
173
     0
291
     1
 45
0.0
1001
ACAD
1000
AcDbSavedByObjectVersion
1070
     0
  0
VISUALSTYLE
  5
94E
102
{ACAD_XDICTIONARY
360
E61
102
}
102
{ACAD_REACTORS
330
942
102
}
330
942
100
AcDbVisualStyle
  2
Brighten
 70
    12
 71
     2
 72
     2
 73
     0
 90
        0
 40
-0.6
 41
-30.0
 62
     5
 63
     7
 74
     1
 91
        4
 64
     7
 65
   257
 75
     1
175
     1
 42
1.0
 92
        8
 66
     7
 43
1.0
 76
     1
 77
     6
 78
     2
 67
     7
 79
     5
170
     0
171
     0
290
     0
174
     0
 93
        1
 44
50.0
173
     0
291
     1
 45
0.0
1001
ACAD
1000
AcDbSavedByObjectVersion
1070
     0
  0
VISUALSTYLE
  5
952
102
{ACAD_XDICTIONARY
360
E69
102
}
102
{ACAD_REACTORS
330
942
102
}
330
942
100
AcDbVisualStyle
  2
ColorChange
 70
    16
 71
     2
 72
     2
 73
     3
 90
        0
 40
-0.6
 41
-30.0
 62
     5
 63
     8
 74
     1
 91
        4
 64
     7
 65
   257
 75
     1
175
     1
 42
1.0
 92
        8
 66
     8
 43
1.0
 76
     1
 77
     6
 78
     2
 67
     7
 79
     5
170
     0
171
     0
290
     0
174
     0
 93
        1
 44
0.0
173
     0
291
     1
 45
0.0
1001
ACAD
1000
AcDbSavedByObjectVersion
1070
     0
  0
VISUALSTYLE
  5
94B
102
{ACAD_XDICTIONARY
360
E5B
102
}
102
{ACAD_REACTORS
330
942
102
}
330
942
100
AcDbVisualStyle
  2
Conceptual
 70
     9
 71
     3
 72
     2
 73
     0
 90
        0
 40
-0.6
 41
-30.0
 62
     5
 63
     7
 74
     2
 91
        2
 64
     7
 65
   257
 75
     1
175
     1
 42
179.0
 92
        8
 66
     7
 43
1.0
 76
     1
 77
     6
 78
     2
 67
     7
 79
     3
170
     0
171
     0
290
     0
174
     0
 93
        1
 44
0.0
173
     0
291
     0
 45
0.0
1001
ACAD
1000
AcDbSavedByObjectVersion
1070
     0
  0
VISUALSTYLE
  5
94D
102
{ACAD_XDICTIONARY
360
E5F
102
}
102
{ACAD_REACTORS
330
942
102
}
330
942
100
AcDbVisualStyle
  2
Dim
 70
    11
 71
     2
 72
     2
 73
     0
 90
        0
 40
-0.6
 41
-30.0
 62
     5
 63
     7
 74
     1
 91
        4
 64
     7
 65
   257
 75
     1
175
     1
 42
1.0
 92
        8
 66
     7
 43
1.0
 76
     1
 77
     6
 78
     2
 67
     7
 79
     5
170
     0
171
     0
290
     0
174
     0
 93
        1
 44
-50.0
173
     0
291
     1
 45
0.0
1001
ACAD
1000
AcDbSavedByObjectVersion
1070
     0
  0
VISUALSTYLE
  5
95A
102
{ACAD_XDICTIONARY
360
E79
102
}
102
{ACAD_REACTORS
330
942
102
}
330
942
100
AcDbVisualStyle
  2
EdgeColorOff
 70
    22
 71
     2
 72
     2
 73
     0
 90
        0
 40
-0.6
 41
-30.0
 62
     5
 63
     7
 74
     1
 91
        4
 64
     7
 65
   257
 75
     1
175
     1
 42
1.0
 92
        8
 66
     7
 43
1.0
 76
     1
 77
     6
 78
     2
 67
     7
 79
     5
170
     0
171
     0
290
     0
174
     0
 93
        1
 44
0.0
173
     0
291
     1
 45
0.0
1001
ACAD
1000
AcDbSavedByObjectVersion
1070
     0
  0
VISUALSTYLE
  5
951
102
{ACAD_XDICTIONARY
360
E67
102
}
102
{ACAD_REACTORS
330
942
102
}
330
942
100
AcDbVisualStyle
  2
Facepattern
 70
    15
 71
     2
 72
     2
 73
     0
 90
        0
 40
-0.6
 41
-30.0
 62
     5
 63
     7
 74
     1
 91
        4
 64
     7
 65
   257
 75
     1
175
     1
 42
1.0
 92
        8
 66
     7
 43
1.0
 76
     1
 77
     6
 78
     2
 67
     7
 79
     5
170
     0
171
     0
290
     0
174
     0
 93
        1
 44
0.0
173
     0
291
     1
 45
0.0
1001
ACAD
1000
AcDbSavedByObjectVersion
1070
     0
  0
VISUALSTYLE
  5
943
102
{ACAD_XDICTIONARY
360
E4B
102
}
102
{ACAD_REACTORS
330
942
102
}
330
942
100
AcDbVisualStyle
  2
Flat
 70
     0
 71
     2
 72
     1
 73
     1
 90
        2
 40
-0.6
 41
30.0
 62
     5
 63
     7
 74
     0
 91
        0
 64
     7
 65
   257
 75
     1
175
     1
 42
1.0
 92
        8
 66
     7
 43
1.0
 76
     1
 77
     6
 78
     2
 67
     7
 79
     5
170
     0
171
     0
290
     0
174
     0
 93
       13
 44
0.0
173
     0
291
     1
 45
0.0
1001
ACAD
1000
AcDbSavedByObjectVersion
1070
     0
  0
VISUALSTYLE
  5
944
102
{ACAD_XDICTIONARY
360
E4D
102
}
102
{ACAD_REACTORS
330
942
102
}
330
942
100
AcDbVisualStyle
  2
FlatWithEdges
 70
     1
 71
     2
 72
     1
 73
     1
 90
        2
 40
-0.6
 41
30.0
 62
     5
 63
     7
 74
     1
 91
        0
 64
     7
 65
   257
 75
     1
175
     1
 42
1.0
 92
        0
 66
   257
 43
1.0
 76
     1
 77
     6
 78
     2
 67
     7
 79
     5
170
     0
171
     0
290
     0
174
     0
 93
       13
 44
0.0
173
     0
291
     1
 45
0.0
1001
ACAD
1000
AcDbSavedByObjectVersion
1070
     0
  0
VISUALSTYLE
  5
945
102
{ACAD_XDICTIONARY
360
E4F
102
}
102
{ACAD_REACTORS
330
942
102
}
330
942
100
AcDbVisualStyle
  2
Gouraud
 70
     2
 71
     2
 72
     2
 73
     1
 90
        2
 40
-0.6
 41
30.0
 62
     5
 63
     7
 74
     0
 91
        0
 64
     7
 65
   257
 75
     1
175
     1
 42
1.0
 92
        0
 66
     7
 43
1.0
 76
     1
 77
     6
 78
     2
 67
     7
 79
     5
170
     0
171
     0
290
     0
174
     0
 93
       13
 44
0.0
173
     0
291
     1
 45
0.0
1001
ACAD
1000
AcDbSavedByObjectVersion
1070
     0
  0
VISUALSTYLE
  5
946
102
{ACAD_XDICTIONARY
360
E51
102
}
102
{ACAD_REACTORS
330
942
102
}
330
942
100
AcDbVisualStyle
  2
GouraudWithEdges
 70
     3
 71
     2
 72
     2
 73
     1
 90
        2
 40
-0.6
 41
30.0
 62
     5
 63
     7
 74
     1
 91
        0
 64
     7
 65
   257
 75
     1
175
     1
 42
1.0
 92
        0
 66
   257
 43
1.0
 76
     1
 77
     6
 78
     2
 67
     7
 79
     5
170
     0
171
     0
290
     0
174
     0
 93
       13
 44
0.0
173
     0
291
     1
 45
0.0
1001
ACAD
1000
AcDbSavedByObjectVersion
1070
     0
  0
VISUALSTYLE
  5
94A
102
{ACAD_XDICTIONARY
360
E59
102
}
102
{ACAD_REACTORS
330
942
102
}
330
942
100
AcDbVisualStyle
  2
Hidden
 70
     6
 71
     1
 72
     2
 73
     2
 90
        0
 40
-0.6
 41
-30.0
 62
     5
 63
     7
 74
     2
 91
        2
 64
     7
 65
   257
 75
     2
175
     1
 42
40.0
 92
        0
 66
   257
 43
1.0
 76
     1
 77
     6
 78
     2
 67
     7
 79
     3
170
     0
171
     0
290
     0
174
     0
 93
        1
 44
0.0
173
     0
291
     0
 45
0.0
1001
ACAD
1000
AcDbSavedByObjectVersion
1070
     0
  0
VISUALSTYLE
  5
958
102
{ACAD_XDICTIONARY
360
E75
102
}
102
{ACAD_REACTORS
330
942
102
}
330
942
100
AcDbVisualStyle
  2
JitterOff
 70
    20
 71
     2
 72
     2
 73
     0
 90
        0
 40
-0.6
 41
-30.0
 62
     5
 63
     7
 74
     1
 91
        4
 64
     7
 65
   257
 75
     1
175
     1
 42
1.0
 92
       10
 66
     7
 43
1.0
 76
     1
 77
     6
 78
     2
 67
     7
 79
     5
170
     0
171
     0
290
     0
174
     0
 93
        1
 44
0.0
173
     0
291
     1
 45
0.0
1001
ACAD
1000
AcDbSavedByObjectVersion
1070
     0
  0
VISUALSTYLE
  5
950
102
{ACAD_XDICTIONARY
360
E65
102
}
102
{ACAD_REACTORS
330
942
102
}
330
942
100
AcDbVisualStyle
  2
Linepattern
 70
    14
 71
     2
 72
     2
 73
     0
 90
        0
 40
-0.6
 41
-30.0
 62
     5
 63
     7
 74
     1
 91
        4
 64
     7
 65
   257
 75
     7
175
     7
 42
1.0
 92
        8
 66
     7
 43
1.0
 76
     1
 77
     6
 78
     2
 67
     7
 79
     5
170
     0
171
     0
290
     0
174
     0
 93
        1
 44
0.0
173
     0
291
     1
 45
0.0
1001
ACAD
1000
AcDbSavedByObjectVersion
1070
     0
  0
VISUALSTYLE
  5
959
102
{ACAD_XDICTIONARY
360
E77
102
}
102
{ACAD_REACTORS
330
942
102
}
330
942
100
AcDbVisualStyle
  2
OverhangOff
 70
    21
 71
     2
 72
     2
 73
     0
 90
        0
 40
-0.6
 41
-30.0
 62
     5
 63
     7
 74
     1
 91
        4
 64
     7
 65
   257
 75
     1
175
     1
 42
1.0
 92
        9
 66
     7
 43
1.0
 76
     1
 77
     6
 78
     2
 67
     7
 79
     5
170
     0
171
     0
290
     0
174
     0
 93
        1
 44
0.0
173
     0
291
     1
 45
0.0
1001
ACAD
1000
AcDbSavedByObjectVersion
1070
     0
  0
VISUALSTYLE
  5
94C
102
{ACAD_XDICTIONARY
360
E5D
102
}
102
{ACAD_REACTORS
330
942
102
}
330
942
100
AcDbVisualStyle
  2
Realistic
 70
     8
 71
     2
 72
     3
 73
     0
 90
        2
 40
-0.6
 41
30.0
 62
     5
 63
     7
 74
     0
 91
        0
 64
     7
 65
   257
 75
     1
175
     1
 42
1.0
 92
        8
 66
   257
 43
1.0
 76
     1
 77
     6
 78
     2
 67
     7
 79
     3
170
     0
171
     0
290
     0
174
     0
 93
       13
 44
0.0
173
     0
291
     0
 45
0.0
1001
ACAD
1000
AcDbSavedByObjectVersion
1070
     0
  0
VISUALSTYLE
  5
957
102
{ACAD_XDICTIONARY
360
E73
102
}
102
{ACAD_REACTORS
330
942
102
}
330
942
100
AcDbVisualStyle
  2
Shaded
 70
    27
 71
     2
 72
     2
 73
     1
 90
        2
 40
-0.6
 41
30.0
 62
     5
 63
     7
 74
     0
 91
        4
 64
     7
 65
   257
 75
     1
175
     1
 42
1.0
 92
        8
 66
   257
 43
1.0
 76
     1
 77
     6
 78
     2
 67
     8
 79
     3
170
     0
171
     0
290
     0
174
     0
 93
        5
 44
0.0
173
     0
291
     0
 45
0.0
1001
ACAD
1000
AcDbSavedByObjectVersion
1070
     0
  0
VISUALSTYLE
  5
956
102
{ACAD_XDICTIONARY
360
E71
102
}
102
{ACAD_REACTORS
330
942
102
}
330
942
100
AcDbVisualStyle
  2
Shaded with edges
 70
    26
 71
     2
 72
     2
 73
     1
 90
        2
 40
-0.6
 41
30.0
 62
     5
 63
     7
 74
     1
 91
       10
 64
     7
 65
   257
 75
     2
175
     1
 42
1.0
 92
        8
 66
   257
 43
1.0
 76
     1
 77
     6
 78
     2
 67
     7
 79
     3
170
     0
171
     0
290
     0
174
     0
 93
        5
 44
0.0
173
     0
291
     0
 45
0.0
1001
ACAD
1000
AcDbSavedByObjectVersion
1070
     0
  0
VISUALSTYLE
  5
953
102
{ACAD_XDICTIONARY
360
E6B
102
}
102
{ACAD_REACTORS
330
942
102
}
330
942
100
AcDbVisualStyle
  2
Shades of Gray
 70
    23
 71
     2
 72
     2
 73
     3
 90
        0
 40
-0.6
 41
-30.0
 62
     5
 63
     7
 74
     2
 91
        2
 64
     7
 65
     7
 75
     1
175
     1
 42
40.0
 92
        8
 66
     7
 43
1.0
 76
     1
 77
     6
 78
     2
 67
     7
 79
     3
170
     0
171
     0
290
     0
174
     0
 93
        1
 44
0.0
173
     0
291
     0
 45
0.0
1001
ACAD
1000
AcDbSavedByObjectVersion
1070
     0
  0
VISUALSTYLE
  5
954
102
{ACAD_XDICTIONARY
360
E6D
102
}
102
{ACAD_REACTORS
330
942
102
}
330
942
100
AcDbVisualStyle
  2
Sketchy
 70
    24
 71
     1
 72
     2
 73
     2
 90
        0
 40
-0.6
 41
-30.0
 62
     5
 63
     7
 74
     2
 91
        2
 64
     7
 65
     7
 75
     1
175
     1
 42
40.0
 92
       11
 66
     7
 43
1.0
 76
     1
 77
     6
 78
     2
 67
     7
 79
     6
170
     0
171
     0
290
     0
174
     0
 93
        1
 44
0.0
173
     0
291
     0
 45
0.0
1001
ACAD
1000
AcDbSavedByObjectVersion
1070
     0
  0
VISUALSTYLE
  5
94F
102
{ACAD_XDICTIONARY
360
E63
102
}
102
{ACAD_REACTORS
330
942
102
}
330
942
100
AcDbVisualStyle
  2
Thicken
 70
    13
 71
     2
 72
     2
 73
     0
 90
        0
 40
-0.6
 41
-30.0
 62
     5
 63
     7
 74
     1
 91
        4
 64
     7
 65
   257
 75
     1
175
     1
 42
1.0
 92
       12
 66
     7
 43
1.0
 76
     1
 77
     6
 78
     2
 67
     7
 79
     5
170
     0
171
     0
290
     0
174
     0
 93
        1
 44
0.0
173
     0
291
     1
 45
0.0
1001
ACAD
1000
AcDbSavedByObjectVersion
1070
     0
  0
VISUALSTYLE
  5
949
102
{ACAD_XDICTIONARY
360
E57
102
}
102
{ACAD_REACTORS
330
942
102
}
330
942
100
AcDbVisualStyle
  2
Wireframe
 70
     5
 71
     0
 72
     2
 73
     0
 90
        0
 40
-0.6
 41
-30.0
 62
     5
 63
     7
 74
     1
 91
        4
 64
     7
 65
   257
 75
     1
175
     1
 42
1.0
 92
        0
 66
   257
 43
1.0
 76
     1
 77
     6
 78
     2
 67
     7
 79
     3
170
     0
171
     0
290
     0
174
     0
 93
        1
 44
0.0
173
     0
291
     0
 45
0.0
1001
ACAD
1000
AcDbSavedByObjectVersion
1070
     0
  0
VISUALSTYLE
  5
955
102
{ACAD_XDICTIONARY
360
E6F
102
}
102
{ACAD_REACTORS
330
942
102
}
330
942
100
AcDbVisualStyle
  2
X-Ray
 70
    25
 71
     2
 72
     2
 73
     1
 90
        1
 40
0.5
 41
-30.0
 62
     5
 63
     7
 74
     1
 91
        0
 64
     7
 65
   257
 75
     1
175
     1
 42
1.0
 92
        8
 66
     7
 43
1.0
 76
     1
 77
     6
 78
     2
 67
     7
 79
     3
170
     0
171
     0
290
     0
174
     0
 93
       13
 44
0.0
173
     0
291
     0
 45
0.0
1001
ACAD
1000
AcDbSavedByObjectVersion
1070
     0
  0
DICTIONARYVAR
  5
DE2
102
{ACAD_REACTORS
330
DDF
102
}
330
DDF
100
DictionaryVariables
280
     0
  1
1:1
  0
DICTIONARYVAR
  5
DE1
102
{ACAD_REACTORS
330
DDF
102
}
330
DDF
100
DictionaryVariables
280
     0
  1
STANDARD
  0
DICTIONARYVAR
  5
DE0
102
{ACAD_REACTORS
330
DDF
102
}
330
DDF
100
DictionaryVariables
280
     0
  1
STANDARD
  0
DICTIONARYVAR
  5
DE5
102
{ACAD_REACTORS
330
DDF
102
}
330
DDF
100
DictionaryVariables
280
     0
  1
1
  0
DICTIONARYVAR
  5
DE4
102
{ACAD_REACTORS
330
DDF
102
}
330
DDF
100
DictionaryVariables
280
     0
  1
0
  0
DICTIONARYVAR
  5
DE3
102
{ACAD_REACTORS
330
DDF
102
}
330
DDF
100
DictionaryVariables
280
     0
  1
127
  0
DICTIONARYVAR
  5
DE6
102
{ACAD_REACTORS
330
DDF
102
}
330
DDF
100
DictionaryVariables
280
     0
  1
2
  0
DICTIONARY
  5
E42
330
1E
100
AcDbDictionary
280
     1
281
     1
  3
ACAD_XREC_ROUNDTRIP
360
E43
  0
DICTIONARY
  5
E46
330
26
100
AcDbDictionary
280
     1
281
     1
  3
ACAD_XREC_ROUNDTRIP
360
E47
  0
DICTIONARY
  5
E44
330
22
100
AcDbDictionary
280
     1
281
     1
  3
ACAD_XREC_ROUNDTRIP
360
E45
  0
DICTIONARY
  5
933
330
932
100
AcDbDictionary
280
     1
281
     1
  3
ACAD_XREC_ROUNDTRIP
360
E49
  3
BUMPTILE
360
935
  3
DIFFUSETILE
360
934
  3
OPACITYTILE
360
938
  3
REFLECTIONTILE
360
937
  3
REFRACTIONTILE
360
939
  3
SPECULARTILE
360
936
  0
DICTIONARY
  5
92B
330
92A
100
AcDbDictionary
280
     1
281
     1
  3
ACAD_XREC_ROUNDTRIP
360
E48
  3
BUMPTILE
360
92D
  3
DIFFUSETILE
360
92C
  3
OPACITYTILE
360
930
  3
REFLECTIONTILE
360
92F
  3
REFRACTIONTILE
360
931
  3
SPECULARTILE
360
92E
  0
DICTIONARY
  5
93B
330
93A
100
AcDbDictionary
280
     1
281
     1
  3
ACAD_XREC_ROUNDTRIP
360
E4A
  3
BUMPTILE
360
93D
  3
DIFFUSETILE
360
93C
  3
OPACITYTILE
360
940
  3
REFLECTIONTILE
360
93F
  3
REFRACTIONTILE
360
941
  3
SPECULARTILE
360
93E
  0
DICTIONARY
  5
E36
330
A08
100
AcDbDictionary
280
     1
281
     1
  3
ACAD_XREC_ROUNDTRIP
360
E37
  0
DICTIONARY
  5
E34
330
95F
100
AcDbDictionary
280
     1
281
     1
  3
ACAD_XREC_ROUNDTRIP
360
E35
  0
DICTIONARY
  5
E32
330
95D
100
AcDbDictionary
280
     1
281
     1
  3
ACAD_ROUNDTRIP_2008_TABLESTYLE_CELLSTYLEMAP
360
E33
  3
ACAD_XREC_ROUNDTRIP
360
E7B
  0
DICTIONARY
  5
E55
330
948
100
AcDbDictionary
280
     1
281
     1
  3
ACAD_XREC_ROUNDTRIP
360
E56
  0
DICTIONARY
  5
E53
330
947
100
AcDbDictionary
280
     1
281
     1
  3
ACAD_XREC_ROUNDTRIP
360
E54
  0
DICTIONARY
  5
E61
330
94E
100
AcDbDictionary
280
     1
281
     1
  3
ACAD_XREC_ROUNDTRIP
360
E62
  0
DICTIONARY
  5
E69
330
952
100
AcDbDictionary
280
     1
281
     1
  3
ACAD_XREC_ROUNDTRIP
360
E6A
  0
DICTIONARY
  5
E5B
330
94B
100
AcDbDictionary
280
     1
281
     1
  3
ACAD_XREC_ROUNDTRIP
360
E5C
  0
DICTIONARY
  5
E5F
330
94D
100
AcDbDictionary
280
     1
281
     1
  3
ACAD_XREC_ROUNDTRIP
360
E60
  0
DICTIONARY
  5
E79
330
95A
100
AcDbDictionary
280
     1
281
     1
  3
ACAD_XREC_ROUNDTRIP
360
E7A
  0
DICTIONARY
  5
E67
330
951
100
AcDbDictionary
280
     1
281
     1
  3
ACAD_XREC_ROUNDTRIP
360
E68
  0
DICTIONARY
  5
E4B
330
943
100
AcDbDictionary
280
     1
281
     1
  3
ACAD_XREC_ROUNDTRIP
360
E4C
  0
DICTIONARY
  5
E4D
330
944
100
AcDbDictionary
280
     1
281
     1
  3
ACAD_XREC_ROUNDTRIP
360
E4E
  0
DICTIONARY
  5
E4F
330
945
100
AcDbDictionary
280
     1
281
     1
  3
ACAD_XREC_ROUNDTRIP
360
E50
  0
DICTIONARY
  5
E51
330
946
100
AcDbDictionary
280
     1
281
     1
  3
ACAD_XREC_ROUNDTRIP
360
E52
  0
DICTIONARY
  5
E59
330
94A
100
AcDbDictionary
280
     1
281
     1
  3
ACAD_XREC_ROUNDTRIP
360
E5A
  0
DICTIONARY
  5
E75
330
958
100
AcDbDictionary
280
     1
281
     1
  3
ACAD_XREC_ROUNDTRIP
360
E76
  0
DICTIONARY
  5
E65
330
950
100
AcDbDictionary
280
     1
281
     1
  3
ACAD_XREC_ROUNDTRIP
360
E66
  0
DICTIONARY
  5
E77
330
959
100
AcDbDictionary
280
     1
281
     1
  3
ACAD_XREC_ROUNDTRIP
360
E78
  0
DICTIONARY
  5
E5D
330
94C
100
AcDbDictionary
280
     1
281
     1
  3
ACAD_XREC_ROUNDTRIP
360
E5E
  0
DICTIONARY
  5
E73
330
957
100
AcDbDictionary
280
     1
281
     1
  3
ACAD_XREC_ROUNDTRIP
360
E74
  0
DICTIONARY
  5
E71
330
956
100
AcDbDictionary
280
     1
281
     1
  3
ACAD_XREC_ROUNDTRIP
360
E72
  0
DICTIONARY
  5
E6B
330
953
100
AcDbDictionary
280
     1
281
     1
  3
ACAD_XREC_ROUNDTRIP
360
E6C
  0
DICTIONARY
  5
E6D
330
954
100
AcDbDictionary
280
     1
281
     1
  3
ACAD_XREC_ROUNDTRIP
360
E6E
  0
DICTIONARY
  5
E63
330
94F
100
AcDbDictionary
280
     1
281
     1
  3
ACAD_XREC_ROUNDTRIP
360
E64
  0
DICTIONARY
  5
E57
330
949
100
AcDbDictionary
280
     1
281
     1
  3
ACAD_XREC_ROUNDTRIP
360
E58
  0
DICTIONARY
  5
E6F
330
955
100
AcDbDictionary
280
     1
281
     1
  3
ACAD_XREC_ROUNDTRIP
360
E70
  0
XRECORD
  5
E43
102
{ACAD_REACTORS
330
E42
102
}
330
E42
100
AcDbXrecord
280
     1
102
SHADEPLOT
 70
     0
102
SHADEPLOTRESLEVEL
 70
     2
102
SHADEPLOTCUSTOMDPI
 70
   300
  0
XRECORD
  5
E47
102
{ACAD_REACTORS
330
E46
102
}
330
E46
100
AcDbXrecord
280
     1
102
SHADEPLOT
 70
     0
102
SHADEPLOTRESLEVEL
 70
     2
102
SHADEPLOTCUSTOMDPI
 70
   300
  0
XRECORD
  5
E45
102
{ACAD_REACTORS
330
E44
102
}
330
E44
100
AcDbXrecord
280
     1
102
SHADEPLOT
 70
     0
102
SHADEPLOTRESLEVEL
 70
     2
102
SHADEPLOTCUSTOMDPI
 70
   300
  0
XRECORD
  5
E49
102
{ACAD_REACTORS
330
933
102
}
330
933
100
AcDbXrecord
280
     1
102
MATERIAL
148
0.0
149
0.0
149
0.0
 93
        0
 94
      127
282
     0
 72
     0
 77
     0
171
     0
175
     0
179
     0
273
     0
  0
XRECORD
  5
935
102
{ACAD_REACTORS
330
933
102
}
330
933
100
AcDbXrecord
280
     1
270
     1
271
     1
  0
XRECORD
  5
934
102
{ACAD_REACTORS
330
933
102
}
330
933
100
AcDbXrecord
280
     1
270
     1
271
     1
  0
XRECORD
  5
938
102
{ACAD_REACTORS
330
933
102
}
330
933
100
AcDbXrecord
280
     1
270
     1
271
     1
  0
XRECORD
  5
937
102
{ACAD_REACTORS
330
933
102
}
330
933
100
AcDbXrecord
280
     1
270
     1
271
     1
  0
XRECORD
  5
939
102
{ACAD_REACTORS
330
933
102
}
330
933
100
AcDbXrecord
280
     1
270
     1
271
     1
  0
XRECORD
  5
936
102
{ACAD_REACTORS
330
933
102
}
330
933
100
AcDbXrecord
280
     1
270
     1
271
     1
  0
XRECORD
  5
E48
102
{ACAD_REACTORS
330
92B
102
}
330
92B
100
AcDbXrecord
280
     1
102
MATERIAL
148
0.0
149
0.0
149
0.0
 93
        0
 94
      127
282
     0
 72
     0
 77
     0
171
     0
175
     0
179
     0
273
     0
  0
XRECORD
  5
92D
102
{ACAD_REACTORS
330
92B
102
}
330
92B
100
AcDbXrecord
280
     1
270
     1
271
     1
  0
XRECORD
  5
92C
102
{ACAD_REACTORS
330
92B
102
}
330
92B
100
AcDbXrecord
280
     1
270
     1
271
     1
  0
XRECORD
  5
930
102
{ACAD_REACTORS
330
92B
102
}
330
92B
100
AcDbXrecord
280
     1
270
     1
271
     1
  0
XRECORD
  5
92F
102
{ACAD_REACTORS
330
92B
102
}
330
92B
100
AcDbXrecord
280
     1
270
     1
271
     1
  0
XRECORD
  5
931
102
{ACAD_REACTORS
330
92B
102
}
330
92B
100
AcDbXrecord
280
     1
270
     1
271
     1
  0
XRECORD
  5
92E
102
{ACAD_REACTORS
330
92B
102
}
330
92B
100
AcDbXrecord
280
     1
270
     1
271
     1
  0
XRECORD
  5
E4A
102
{ACAD_REACTORS
330
93B
102
}
330
93B
100
AcDbXrecord
280
     1
102
MATERIAL
148
0.0
149
0.0
149
0.0
 93
        0
 94
      127
282
     0
 72
     0
 77
     0
171
     0
175
     0
179
     0
273
     0
  0
XRECORD
  5
93D
102
{ACAD_REACTORS
330
93B
102
}
330
93B
100
AcDbXrecord
280
     1
270
     1
271
     1
  0
XRECORD
  5
93C
102
{ACAD_REACTORS
330
93B
102
}
330
93B
100
AcDbXrecord
280
     1
270
     1
271
     1
  0
XRECORD
  5
940
102
{ACAD_REACTORS
330
93B
102
}
330
93B
100
AcDbXrecord
280
     1
270
     1
271
     1
  0
XRECORD
  5
93F
102
{ACAD_REACTORS
330
93B
102
}
330
93B
100
AcDbXrecord
280
     1
270
     1
271
     1
  0
XRECORD
  5
941
102
{ACAD_REACTORS
330
93B
102
}
330
93B
100
AcDbXrecord
280
     1
270
     1
271
     1
  0
XRECORD
  5
93E
102
{ACAD_REACTORS
330
93B
102
}
330
93B
100
AcDbXrecord
280
     1
270
     1
271
     1
  0
XRECORD
  5
E37
102
{ACAD_REACTORS
330
E36
102
}
330
E36
100
AcDbXrecord
280
     1
102
ACAD_ROUNDTRIP_2012_MLEADER_STYLE
298
     1
  0
XRECORD
  5
E35
102
{ACAD_REACTORS
330
E34
102
}
330
E34
100
AcDbXrecord
280
     1
102
ACAD_ROUNDTRIP_2012_MLEADER_STYLE
298
     1
  0
CELLSTYLEMAP
  5
E33
102
{ACAD_REACTORS
330
E32
102
}
330
E32
100
AcDbCellStyleMap
 90
        3
300
CELLSTYLE
  1
TABLEFORMAT_BEGIN
 90
        5
170
     1
 91
        0
 92
    32768
 62
   257
 93
        1
300
CONTENTFORMAT
  1
CONTENTFORMAT_BEGIN
 90
        0
 91
        0
 92
      512
 93
        0
300

 40
0.0
140
1.0
 94
        5
 62
     0
340
11
144
6.0
309
CONTENTFORMAT_END
171
     1
301
MARGIN
  1
CELLMARGIN_BEGIN
 40
1.5
 40
1.5
 40
1.5
 40
1.5
 40
4.5
 40
4.5
309
CELLMARGIN_END
 94
        6
 95
        1
302
GRIDFORMAT
  1
GRIDFORMAT_BEGIN
 90
        0
 91
        1
 62
     0
 92
       -2
340
0
 93
        0
 40
1.125
309
GRIDFORMAT_END
 95
        2
302
GRIDFORMAT
  1
GRIDFORMAT_BEGIN
 90
        0
 91
        1
 62
     0
 92
       -2
340
0
 93
        0
 40
1.125
309
GRIDFORMAT_END
 95
        4
302
GRIDFORMAT
  1
GRIDFORMAT_BEGIN
 90
        0
 91
        1
 62
     0
 92
       -2
340
0
 93
        0
 40
1.125
309
GRIDFORMAT_END
 95
        8
302
GRIDFORMAT
  1
GRIDFORMAT_BEGIN
 90
        0
 91
        1
 62
     0
 92
       -2
340
0
 93
        0
 40
1.125
309
GRIDFORMAT_END
 95
       16
302
GRIDFORMAT
  1
GRIDFORMAT_BEGIN
 90
        0
 91
        1
 62
     0
 92
       -2
340
0
 93
        0
 40
1.125
309
GRIDFORMAT_END
 95
       32
302
GRIDFORMAT
  1
GRIDFORMAT_BEGIN
 90
        0
 91
        1
 62
     0
 92
       -2
340
0
 93
        0
 40
1.125
309
GRIDFORMAT_END
309
TABLEFORMAT_END
  1
CELLSTYLE_BEGIN
 90
        1
 91
        1
300
_TITLE
309
CELLSTYLE_END
300
CELLSTYLE
  1
TABLEFORMAT_BEGIN
 90
        5
170
     1
 91
        0
 92
        0
 62
   257
 93
        1
300
CONTENTFORMAT
  1
CONTENTFORMAT_BEGIN
 90
        0
 91
        0
 92
      512
 93
        0
300

 40
0.0
140
1.0
 94
        5
 62
     0
340
11
144
4.5
309
CONTENTFORMAT_END
171
     1
301
MARGIN
  1
CELLMARGIN_BEGIN
 40
1.5
 40
1.5
 40
1.5
 40
1.5
 40
4.5
 40
4.5
309
CELLMARGIN_END
 94
        6
 95
        1
302
GRIDFORMAT
  1
GRIDFORMAT_BEGIN
 90
        0
 91
        1
 62
     0
 92
       -2
340
0
 93
        0
 40
1.125
309
GRIDFORMAT_END
 95
        2
302
GRIDFORMAT
  1
GRIDFORMAT_BEGIN
 90
        0
 91
        1
 62
     0
 92
       -2
340
0
 93
        0
 40
1.125
309
GRIDFORMAT_END
 95
        4
302
GRIDFORMAT
  1
GRIDFORMAT_BEGIN
 90
        0
 91
        1
 62
     0
 92
       -2
340
0
 93
        0
 40
1.125
309
GRIDFORMAT_END
 95
        8
302
GRIDFORMAT
  1
GRIDFORMAT_BEGIN
 90
        0
 91
        1
 62
     0
 92
       -2
340
0
 93
        0
 40
1.125
309
GRIDFORMAT_END
 95
       16
302
GRIDFORMAT
  1
GRIDFORMAT_BEGIN
 90
        0
 91
        1
 62
     0
 92
       -2
340
0
 93
        0
 40
1.125
309
GRIDFORMAT_END
 95
       32
302
GRIDFORMAT
  1
GRIDFORMAT_BEGIN
 90
        0
 91
        1
 62
     0
 92
       -2
340
0
 93
        0
 40
1.125
309
GRIDFORMAT_END
309
TABLEFORMAT_END
  1
CELLSTYLE_BEGIN
 90
        2
 91
        1
300
_HEADER
309
CELLSTYLE_END
300
CELLSTYLE
  1
TABLEFORMAT_BEGIN
 90
        5
170
     1
 91
        0
 92
        0
 62
   257
 93
        1
300
CONTENTFORMAT
  1
CONTENTFORMAT_BEGIN
 90
        0
 91
        0
 92
      512
 93
        0
300

 40
0.0
140
1.0
 94
        2
 62
     0
340
11
144
4.5
309
CONTENTFORMAT_END
171
     1
301
MARGIN
  1
CELLMARGIN_BEGIN
 40
1.5
 40
1.5
 40
1.5
 40
1.5
 40
4.5
 40
4.5
309
CELLMARGIN_END
 94
        6
 95
        1
302
GRIDFORMAT
  1
GRIDFORMAT_BEGIN
 90
        0
 91
        1
 62
     0
 92
       -2
340
0
 93
        0
 40
1.125
309
GRIDFORMAT_END
 95
        2
302
GRIDFORMAT
  1
GRIDFORMAT_BEGIN
 90
        0
 91
        1
 62
     0
 92
       -2
340
0
 93
        0
 40
1.125
309
GRIDFORMAT_END
 95
        4
302
GRIDFORMAT
  1
GRIDFORMAT_BEGIN
 90
        0
 91
        1
 62
     0
 92
       -2
340
0
 93
        0
 40
1.125
309
GRIDFORMAT_END
 95
        8
302
GRIDFORMAT
  1
GRIDFORMAT_BEGIN
 90
        0
 91
        1
 62
     0
 92
       -2
340
0
 93
        0
 40
1.125
309
GRIDFORMAT_END
 95
       16
302
GRIDFORMAT
  1
GRIDFORMAT_BEGIN
 90
        0
 91
        1
 62
     0
 92
       -2
340
0
 93
        0
 40
1.125
309
GRIDFORMAT_END
 95
       32
302
GRIDFORMAT
  1
GRIDFORMAT_BEGIN
 90
        0
 91
        1
 62
     0
 92
       -2
340
0
 93
        0
 40
1.125
309
GRIDFORMAT_END
309
TABLEFORMAT_END
  1
CELLSTYLE_BEGIN
 90
        3
 91
        2
300
_DATA
309
CELLSTYLE_END
  0
XRECORD
  5
E7B
102
{ACAD_REACTORS
330
E32
102
}
330
E32
100
AcDbXrecord
280
     1
102
ACAD_ROUNDTRIP_PRE2007_TABLESTYLE
 90
      512
 91
        0
  1

 92
      512
 93
        0
  2

 94
      512
 95
        0
  3

  0
XRECORD
  5
E56
102
{ACAD_REACTORS
330
E55
102
}
330
E55
100
AcDbXrecord
280
     1
102
RTVSPropertyOp0
 70
     1
102
RTVSPropertyOp1
 70
     1
102
RTVSPropertyOp2
 70
     1
102
RTVSPropertyOp3
 70
     1
102
RTVSPropertyOp4
 70
     1
102
RTVSPropertyOp5
 70
     1
102
RTVSPropertyOp6
 70
     1
102
RTVSPropertyOp7
 70
     1
102
RTVSPropertyOp8
 70
     1
102
RTVSPropertyOp9
 70
     1
102
RTVSPropertyOp10
 70
     1
102
RTVSPropertyOp11
 70
     1
102
RTVSPropertyOp12
 70
     1
102
RTVSPropertyOp13
 70
     1
102
RTVSPropertyOp14
 70
     1
102
RTVSPropertyOp15
 70
     1
102
RTVSPropertyOp16
 70
     1
102
RTVSPropertyOp17
 70
     1
102
RTVSPropertyOp18
 70
     1
102
RTVSPropertyOp19
 70
     1
102
RTVSPropertyOp20
 70
     1
102
RTVSPropertyOp21
 70
     1
102
RTVSPropertyOp22
 70
     1
102
RTVSPropertyOp23
 70
     1
102
RTVSPropertyOp24
 70
     1
102
RTVSPropertyOp25
 70
     1
102
RTVSPropertyOp26
 70
     1
102
RTVSPropertyOp27
 70
     1
102
RTVSPropertyOp28
 70
     1
102
RTVSPropertyOp29
 70
     1
102
RTVSPropertyOp30
 70
     1
102
RTVSPropertyOp31
 70
     1
102
RTVSPropertyOp32
 70
     1
  0
XRECORD
  5
E54
102
{ACAD_REACTORS
330
E53
102
}
330
E53
100
AcDbXrecord
280
     1
102
RTVSPropertyOp0
 70
     1
102
RTVSPropertyOp1
 70
     1
102
RTVSPropertyOp2
 70
     1
102
RTVSPropertyOp3
 70
     1
102
RTVSPropertyOp4
 70
     1
102
RTVSPropertyOp5
 70
     1
102
RTVSPropertyOp6
 70
     1
102
RTVSPropertyOp7
 70
     1
102
RTVSPropertyOp8
 70
     1
102
RTVSPropertyOp9
 70
     1
102
RTVSPropertyOp10
 70
     1
102
RTVSPropertyOp11
 70
     1
102
RTVSPropertyOp12
 70
     1
102
RTVSPropertyOp13
 70
     1
102
RTVSPropertyOp14
 70
     1
102
RTVSPropertyOp15
 70
     1
102
RTVSPropertyOp16
 70
     1
102
RTVSPropertyOp17
 70
     1
102
RTVSPropertyOp18
 70
     1
102
RTVSPropertyOp19
 70
     1
102
RTVSPropertyOp20
 70
     1
102
RTVSPropertyOp21
 70
     1
102
RTVSPropertyOp22
 70
     1
102
RTVSPropertyOp23
 70
     1
102
RTVSPropertyOp24
 70
     1
102
RTVSPropertyOp25
 70
     1
102
RTVSPropertyOp26
 70
     1
102
RTVSPropertyOp27
 70
     1
102
RTVSPropertyOp28
 70
     1
102
RTVSPropertyOp29
 70
     1
102
RTVSPropertyOp30
 70
     1
102
RTVSPropertyOp31
 70
     1
102
RTVSPropertyOp32
 70
     1
  0
XRECORD
  5
E62
102
{ACAD_REACTORS
330
E61
102
}
330
E61
100
AcDbXrecord
280
     1
102
RTVSPropertyOp0
 70
     1
102
RTVSPropertyOp1
 70
     1
102
RTVSPropertyOp2
 70
     1
102
RTVSPropertyOp3
 70
     1
102
RTVSPropertyOp4
 70
     1
102
RTVSPropertyOp5
 70
     1
102
RTVSPropertyOp6
 70
     1
102
RTVSPropertyOp7
 70
     1
102
RTVSPropertyOp8
 70
     1
102
RTVSPropertyOp9
 70
     1
102
RTVSPropertyOp10
 70
     1
102
RTVSPropertyOp11
 70
     1
102
RTVSPropertyOp12
 70
     1
102
RTVSPropertyOp13
 70
     1
102
RTVSPropertyOp14
 70
     1
102
RTVSPropertyOp15
 70
     1
102
RTVSPropertyOp16
 70
     1
102
RTVSPropertyOp17
 70
     1
102
RTVSPropertyOp18
 70
     1
102
RTVSPropertyOp19
 70
     1
102
RTVSPropertyOp20
 70
     1
102
RTVSPropertyOp21
 70
     1
102
RTVSPropertyOp22
 70
     1
102
RTVSPropertyOp23
 70
     1
102
RTVSPropertyOp24
 70
     1
102
RTVSPropertyOp25
 70
     1
102
RTVSPropertyOp26
 70
     1
102
RTVSPropertyOp27
 70
     1
102
RTVSPropertyOp28
 70
     1
102
RTVSPropertyOp29
 70
     1
102
RTVSPropertyOp30
 70
     1
102
RTVSPropertyOp31
 70
     1
102
RTVSPropertyOp32
 70
     1
  0
XRECORD
  5
E6A
102
{ACAD_REACTORS
330
E69
102
}
330
E69
100
AcDbXrecord
280
     1
102
RTVSPropertyOp0
 70
     1
102
RTVSPropertyOp1
 70
     1
102
RTVSPropertyOp2
 70
     1
102
RTVSPropertyOp3
 70
     1
102
RTVSPropertyOp4
 70
     1
102
RTVSPropertyOp5
 70
     1
102
RTVSPropertyOp6
 70
     1
102
RTVSPropertyOp7
 70
     1
102
RTVSPropertyOp8
 70
     1
102
RTVSPropertyOp9
 70
     1
102
RTVSPropertyOp10
 70
     1
102
RTVSPropertyOp11
 70
     1
102
RTVSPropertyOp12
 70
     1
102
RTVSPropertyOp13
 70
     1
102
RTVSPropertyOp14
 70
     1
102
RTVSPropertyOp15
 70
     1
102
RTVSPropertyOp16
 70
     1
102
RTVSPropertyOp17
 70
     1
102
RTVSPropertyOp18
 70
     1
102
RTVSPropertyOp19
 70
     1
102
RTVSPropertyOp20
 70
     1
102
RTVSPropertyOp21
 70
     1
102
RTVSPropertyOp22
 70
     1
102
RTVSPropertyOp23
 70
     1
102
RTVSPropertyOp24
 70
     1
102
RTVSPropertyOp25
 70
     1
102
RTVSPropertyOp26
 70
     1
102
RTVSPropertyOp27
 70
     1
102
RTVSPropertyOp28
 70
     1
102
RTVSPropertyOp29
 70
     1
102
RTVSPropertyOp30
 70
     1
102
RTVSPropertyOp31
 70
     1
102
RTVSPropertyOp32
 70
     1
  0
XRECORD
  5
E5C
102
{ACAD_REACTORS
330
E5B
102
}
330
E5B
100
AcDbXrecord
280
     1
102
RTVSPropertyOp0
 70
     1
102
RTVSPropertyOp1
 70
     1
102
RTVSPropertyOp2
 70
     1
102
RTVSPropertyOp3
 70
     1
102
RTVSPropertyOp4
 70
     1
102
RTVSPropertyOp5
 70
     1
102
RTVSPropertyOp6
 70
     1
102
RTVSPropertyOp7
 70
     1
102
RTVSPropertyOp8
 70
     1
102
RTVSPropertyOp9
 70
     1
102
RTVSPropertyOp10
 70
     1
102
RTVSPropertyOp11
 70
     1
102
RTVSPropertyOp12
 70
     1
102
RTVSPropertyOp13
 70
     1
102
RTVSPropertyOp14
 70
     1
102
RTVSPropertyOp15
 70
     1
102
RTVSPropertyOp16
 70
     1
102
RTVSPropertyOp17
 70
     1
102
RTVSPropertyOp18
 70
     1
102
RTVSPropertyOp19
 70
     1
102
RTVSPropertyOp20
 70
     1
102
RTVSPropertyOp21
 70
     1
102
RTVSPropertyOp22
 70
     1
102
RTVSPropertyOp23
 70
     1
102
RTVSPropertyOp24
 70
     1
102
RTVSPropertyOp25
 70
     1
102
RTVSPropertyOp26
 70
     1
102
RTVSPropertyOp27
 70
     1
102
RTVSPropertyOp28
 70
     1
102
RTVSPropertyOp29
 70
     1
102
RTVSPropertyOp30
 70
     1
102
RTVSPropertyOp31
 70
     1
102
RTVSPropertyOp32
 70
     1
  0
XRECORD
  5
E60
102
{ACAD_REACTORS
330
E5F
102
}
330
E5F
100
AcDbXrecord
280
     1
102
RTVSPropertyOp0
 70
     1
102
RTVSPropertyOp1
 70
     1
102
RTVSPropertyOp2
 70
     1
102
RTVSPropertyOp3
 70
     1
102
RTVSPropertyOp4
 70
     1
102
RTVSPropertyOp5
 70
     1
102
RTVSPropertyOp6
 70
     1
102
RTVSPropertyOp7
 70
     1
102
RTVSPropertyOp8
 70
     1
102
RTVSPropertyOp9
 70
     1
102
RTVSPropertyOp10
 70
     1
102
RTVSPropertyOp11
 70
     1
102
RTVSPropertyOp12
 70
     1
102
RTVSPropertyOp13
 70
     1
102
RTVSPropertyOp14
 70
     1
102
RTVSPropertyOp15
 70
     1
102
RTVSPropertyOp16
 70
     1
102
RTVSPropertyOp17
 70
     1
102
RTVSPropertyOp18
 70
     1
102
RTVSPropertyOp19
 70
     1
102
RTVSPropertyOp20
 70
     1
102
RTVSPropertyOp21
 70
     1
102
RTVSPropertyOp22
 70
     1
102
RTVSPropertyOp23
 70
     1
102
RTVSPropertyOp24
 70
     1
102
RTVSPropertyOp25
 70
     1
102
RTVSPropertyOp26
 70
     1
102
RTVSPropertyOp27
 70
     1
102
RTVSPropertyOp28
 70
     1
102
RTVSPropertyOp29
 70
     1
102
RTVSPropertyOp30
 70
     1
102
RTVSPropertyOp31
 70
     1
102
RTVSPropertyOp32
 70
     1
  0
XRECORD
  5
E7A
102
{ACAD_REACTORS
330
E79
102
}
330
E79
100
AcDbXrecord
280
     1
102
RTVSPropertyOp0
 70
     0
102
RTVSPropertyOp1
 70
     0
102
RTVSPropertyOp2
 70
     0
102
RTVSPropertyOp3
 70
     0
102
RTVSPropertyOp4
 70
     0
102
RTVSPropertyOp5
 70
     0
102
RTVSPropertyOp6
 70
     0
102
RTVSPropertyOp7
 70
     0
102
RTVSPropertyOp8
 70
     0
102
RTVSPropertyOp9
 70
     0
102
RTVSPropertyOp10
 70
     0
102
RTVSPropertyOp11
 70
     0
102
RTVSPropertyOp12
 70
     0
102
RTVSPropertyOp13
 70
     0
102
RTVSPropertyOp14
 70
     2
102
RTVSPropertyOp15
 70
     0
102
RTVSPropertyOp16
 70
     0
102
RTVSPropertyOp17
 70
     0
102
RTVSPropertyOp18
 70
     0
102
RTVSPropertyOp19
 70
     0
102
RTVSPropertyOp20
 70
     0
102
RTVSPropertyOp21
 70
     0
102
RTVSPropertyOp22
 70
     0
102
RTVSPropertyOp23
 70
     0
102
RTVSPropertyOp24
 70
     0
102
RTVSPropertyOp25
 70
     0
102
RTVSPropertyOp26
 70
     0
102
RTVSPropertyOp27
 70
     0
102
RTVSPropertyOp28
 70
     0
102
RTVSPropertyOp29
 70
     0
102
RTVSPropertyOp30
 70
     0
102
RTVSPropertyOp31
 70
     0
102
RTVSPropertyOp32
 70
     0
  0
XRECORD
  5
E68
102
{ACAD_REACTORS
330
E67
102
}
330
E67
100
AcDbXrecord
280
     1
102
RTVSPropertyOp0
 70
     1
102
RTVSPropertyOp1
 70
     1
102
RTVSPropertyOp2
 70
     1
102
RTVSPropertyOp3
 70
     1
102
RTVSPropertyOp4
 70
     1
102
RTVSPropertyOp5
 70
     1
102
RTVSPropertyOp6
 70
     1
102
RTVSPropertyOp7
 70
     1
102
RTVSPropertyOp8
 70
     1
102
RTVSPropertyOp9
 70
     1
102
RTVSPropertyOp10
 70
     1
102
RTVSPropertyOp11
 70
     1
102
RTVSPropertyOp12
 70
     1
102
RTVSPropertyOp13
 70
     1
102
RTVSPropertyOp14
 70
     1
102
RTVSPropertyOp15
 70
     1
102
RTVSPropertyOp16
 70
     1
102
RTVSPropertyOp17
 70
     1
102
RTVSPropertyOp18
 70
     1
102
RTVSPropertyOp19
 70
     1
102
RTVSPropertyOp20
 70
     1
102
RTVSPropertyOp21
 70
     1
102
RTVSPropertyOp22
 70
     1
102
RTVSPropertyOp23
 70
     1
102
RTVSPropertyOp24
 70
     1
102
RTVSPropertyOp25
 70
     1
102
RTVSPropertyOp26
 70
     1
102
RTVSPropertyOp27
 70
     1
102
RTVSPropertyOp28
 70
     1
102
RTVSPropertyOp29
 70
     1
102
RTVSPropertyOp30
 70
     1
102
RTVSPropertyOp31
 70
     1
102
RTVSPropertyOp32
 70
     1
  0
XRECORD
  5
E4C
102
{ACAD_REACTORS
330
E4B
102
}
330
E4B
100
AcDbXrecord
280
     1
102
RTVSPropertyOp0
 70
     1
102
RTVSPropertyOp1
 70
     1
102
RTVSPropertyOp2
 70
     1
102
RTVSPropertyOp3
 70
     1
102
RTVSPropertyOp4
 70
     1
102
RTVSPropertyOp5
 70
     1
102
RTVSPropertyOp6
 70
     1
102
RTVSPropertyOp7
 70
     1
102
RTVSPropertyOp8
 70
     1
102
RTVSPropertyOp9
 70
     1
102
RTVSPropertyOp10
 70
     1
102
RTVSPropertyOp11
 70
     1
102
RTVSPropertyOp12
 70
     1
102
RTVSPropertyOp13
 70
     1
102
RTVSPropertyOp14
 70
     1
102
RTVSPropertyOp15
 70
     1
102
RTVSPropertyOp16
 70
     1
102
RTVSPropertyOp17
 70
     1
102
RTVSPropertyOp18
 70
     1
102
RTVSPropertyOp19
 70
     1
102
RTVSPropertyOp20
 70
     1
102
RTVSPropertyOp21
 70
     1
102
RTVSPropertyOp22
 70
     1
102
RTVSPropertyOp23
 70
     1
102
RTVSPropertyOp24
 70
     1
102
RTVSPropertyOp25
 70
     1
102
RTVSPropertyOp26
 70
     1
102
RTVSPropertyOp27
 70
     1
102
RTVSPropertyOp28
 70
     1
102
RTVSPropertyOp29
 70
     1
102
RTVSPropertyOp30
 70
     1
102
RTVSPropertyOp31
 70
     1
102
RTVSPropertyOp32
 70
     1
  0
XRECORD
  5
E4E
102
{ACAD_REACTORS
330
E4D
102
}
330
E4D
100
AcDbXrecord
280
     1
102
RTVSPropertyOp0
 70
     1
102
RTVSPropertyOp1
 70
     1
102
RTVSPropertyOp2
 70
     1
102
RTVSPropertyOp3
 70
     1
102
RTVSPropertyOp4
 70
     1
102
RTVSPropertyOp5
 70
     1
102
RTVSPropertyOp6
 70
     1
102
RTVSPropertyOp7
 70
     1
102
RTVSPropertyOp8
 70
     1
102
RTVSPropertyOp9
 70
     1
102
RTVSPropertyOp10
 70
     1
102
RTVSPropertyOp11
 70
     1
102
RTVSPropertyOp12
 70
     1
102
RTVSPropertyOp13
 70
     1
102
RTVSPropertyOp14
 70
     1
102
RTVSPropertyOp15
 70
     1
102
RTVSPropertyOp16
 70
     1
102
RTVSPropertyOp17
 70
     1
102
RTVSPropertyOp18
 70
     1
102
RTVSPropertyOp19
 70
     1
102
RTVSPropertyOp20
 70
     1
102
RTVSPropertyOp21
 70
     1
102
RTVSPropertyOp22
 70
     1
102
RTVSPropertyOp23
 70
     1
102
RTVSPropertyOp24
 70
     1
102
RTVSPropertyOp25
 70
     1
102
RTVSPropertyOp26
 70
     1
102
RTVSPropertyOp27
 70
     1
102
RTVSPropertyOp28
 70
     1
102
RTVSPropertyOp29
 70
     1
102
RTVSPropertyOp30
 70
     1
102
RTVSPropertyOp31
 70
     1
102
RTVSPropertyOp32
 70
     1
  0
XRECORD
  5
E50
102
{ACAD_REACTORS
330
E4F
102
}
330
E4F
100
AcDbXrecord
280
     1
102
RTVSPropertyOp0
 70
     1
102
RTVSPropertyOp1
 70
     1
102
RTVSPropertyOp2
 70
     1
102
RTVSPropertyOp3
 70
     1
102
RTVSPropertyOp4
 70
     1
102
RTVSPropertyOp5
 70
     1
102
RTVSPropertyOp6
 70
     1
102
RTVSPropertyOp7
 70
     1
102
RTVSPropertyOp8
 70
     1
102
RTVSPropertyOp9
 70
     1
102
RTVSPropertyOp10
 70
     1
102
RTVSPropertyOp11
 70
     1
102
RTVSPropertyOp12
 70
     1
102
RTVSPropertyOp13
 70
     1
102
RTVSPropertyOp14
 70
     1
102
RTVSPropertyOp15
 70
     1
102
RTVSPropertyOp16
 70
     1
102
RTVSPropertyOp17
 70
     1
102
RTVSPropertyOp18
 70
     1
102
RTVSPropertyOp19
 70
     1
102
RTVSPropertyOp20
 70
     1
102
RTVSPropertyOp21
 70
     1
102
RTVSPropertyOp22
 70
     1
102
RTVSPropertyOp23
 70
     1
102
RTVSPropertyOp24
 70
     1
102
RTVSPropertyOp25
 70
     1
102
RTVSPropertyOp26
 70
     1
102
RTVSPropertyOp27
 70
     1
102
RTVSPropertyOp28
 70
     1
102
RTVSPropertyOp29
 70
     1
102
RTVSPropertyOp30
 70
     1
102
RTVSPropertyOp31
 70
     1
102
RTVSPropertyOp32
 70
     1
  0
XRECORD
  5
E52
102
{ACAD_REACTORS
330
E51
102
}
330
E51
100
AcDbXrecord
280
     1
102
RTVSPropertyOp0
 70
     1
102
RTVSPropertyOp1
 70
     1
102
RTVSPropertyOp2
 70
     1
102
RTVSPropertyOp3
 70
     1
102
RTVSPropertyOp4
 70
     1
102
RTVSPropertyOp5
 70
     1
102
RTVSPropertyOp6
 70
     1
102
RTVSPropertyOp7
 70
     1
102
RTVSPropertyOp8
 70
     1
102
RTVSPropertyOp9
 70
     1
102
RTVSPropertyOp10
 70
     1
102
RTVSPropertyOp11
 70
     1
102
RTVSPropertyOp12
 70
     1
102
RTVSPropertyOp13
 70
     1
102
RTVSPropertyOp14
 70
     1
102
RTVSPropertyOp15
 70
     1
102
RTVSPropertyOp16
 70
     1
102
RTVSPropertyOp17
 70
     1
102
RTVSPropertyOp18
 70
     1
102
RTVSPropertyOp19
 70
     1
102
RTVSPropertyOp20
 70
     1
102
RTVSPropertyOp21
 70
     1
102
RTVSPropertyOp22
 70
     1
102
RTVSPropertyOp23
 70
     1
102
RTVSPropertyOp24
 70
     1
102
RTVSPropertyOp25
 70
     1
102
RTVSPropertyOp26
 70
     1
102
RTVSPropertyOp27
 70
     1
102
RTVSPropertyOp28
 70
     1
102
RTVSPropertyOp29
 70
     1
102
RTVSPropertyOp30
 70
     1
102
RTVSPropertyOp31
 70
     1
102
RTVSPropertyOp32
 70
     1
  0
XRECORD
  5
E5A
102
{ACAD_REACTORS
330
E59
102
}
330
E59
100
AcDbXrecord
280
     1
102
RTVSPropertyOp0
 70
     1
102
RTVSPropertyOp1
 70
     1
102
RTVSPropertyOp2
 70
     1
102
RTVSPropertyOp3
 70
     1
102
RTVSPropertyOp4
 70
     1
102
RTVSPropertyOp5
 70
     1
102
RTVSPropertyOp6
 70
     1
102
RTVSPropertyOp7
 70
     1
102
RTVSPropertyOp8
 70
     1
102
RTVSPropertyOp9
 70
     1
102
RTVSPropertyOp10
 70
     1
102
RTVSPropertyOp11
 70
     1
102
RTVSPropertyOp12
 70
     1
102
RTVSPropertyOp13
 70
     1
102
RTVSPropertyOp14
 70
     1
102
RTVSPropertyOp15
 70
     1
102
RTVSPropertyOp16
 70
     1
102
RTVSPropertyOp17
 70
     1
102
RTVSPropertyOp18
 70
     1
102
RTVSPropertyOp19
 70
     1
102
RTVSPropertyOp20
 70
     1
102
RTVSPropertyOp21
 70
     1
102
RTVSPropertyOp22
 70
     1
102
RTVSPropertyOp23
 70
     1
102
RTVSPropertyOp24
 70
     1
102
RTVSPropertyOp25
 70
     1
102
RTVSPropertyOp26
 70
     1
102
RTVSPropertyOp27
 70
     1
102
RTVSPropertyOp28
 70
     1
102
RTVSPropertyOp29
 70
     1
102
RTVSPropertyOp30
 70
     1
102
RTVSPropertyOp31
 70
     1
102
RTVSPropertyOp32
 70
     1
  0
XRECORD
  5
E76
102
{ACAD_REACTORS
330
E75
102
}
330
E75
100
AcDbXrecord
280
     1
102
RTVSPropertyOp0
 70
     0
102
RTVSPropertyOp1
 70
     0
102
RTVSPropertyOp2
 70
     0
102
RTVSPropertyOp3
 70
     0
102
RTVSPropertyOp4
 70
     0
102
RTVSPropertyOp5
 70
     0
102
RTVSPropertyOp6
 70
     0
102
RTVSPropertyOp7
 70
     0
102
RTVSPropertyOp8
 70
     0
102
RTVSPropertyOp9
 70
     0
102
RTVSPropertyOp10
 70
     0
102
RTVSPropertyOp11
 70
     0
102
RTVSPropertyOp12
 70
     0
102
RTVSPropertyOp13
 70
     0
102
RTVSPropertyOp14
 70
     2
102
RTVSPropertyOp15
 70
     0
102
RTVSPropertyOp16
 70
     0
102
RTVSPropertyOp17
 70
     0
102
RTVSPropertyOp18
 70
     0
102
RTVSPropertyOp19
 70
     0
102
RTVSPropertyOp20
 70
     0
102
RTVSPropertyOp21
 70
     0
102
RTVSPropertyOp22
 70
     0
102
RTVSPropertyOp23
 70
     0
102
RTVSPropertyOp24
 70
     0
102
RTVSPropertyOp25
 70
     0
102
RTVSPropertyOp26
 70
     0
102
RTVSPropertyOp27
 70
     0
102
RTVSPropertyOp28
 70
     0
102
RTVSPropertyOp29
 70
     0
102
RTVSPropertyOp30
 70
     0
102
RTVSPropertyOp31
 70
     0
102
RTVSPropertyOp32
 70
     0
  0
XRECORD
  5
E66
102
{ACAD_REACTORS
330
E65
102
}
330
E65
100
AcDbXrecord
280
     1
102
RTVSPropertyOp0
 70
     1
102
RTVSPropertyOp1
 70
     1
102
RTVSPropertyOp2
 70
     1
102
RTVSPropertyOp3
 70
     1
102
RTVSPropertyOp4
 70
     1
102
RTVSPropertyOp5
 70
     1
102
RTVSPropertyOp6
 70
     1
102
RTVSPropertyOp7
 70
     1
102
RTVSPropertyOp8
 70
     1
102
RTVSPropertyOp9
 70
     1
102
RTVSPropertyOp10
 70
     1
102
RTVSPropertyOp11
 70
     1
102
RTVSPropertyOp12
 70
     1
102
RTVSPropertyOp13
 70
     1
102
RTVSPropertyOp14
 70
     1
102
RTVSPropertyOp15
 70
     1
102
RTVSPropertyOp16
 70
     1
102
RTVSPropertyOp17
 70
     1
102
RTVSPropertyOp18
 70
     1
102
RTVSPropertyOp19
 70
     1
102
RTVSPropertyOp20
 70
     1
102
RTVSPropertyOp21
 70
     1
102
RTVSPropertyOp22
 70
     1
102
RTVSPropertyOp23
 70
     1
102
RTVSPropertyOp24
 70
     1
102
RTVSPropertyOp25
 70
     1
102
RTVSPropertyOp26
 70
     1
102
RTVSPropertyOp27
 70
     1
102
RTVSPropertyOp28
 70
     1
102
RTVSPropertyOp29
 70
     1
102
RTVSPropertyOp30
 70
     1
102
RTVSPropertyOp31
 70
     1
102
RTVSPropertyOp32
 70
     1
  0
XRECORD
  5
E78
102
{ACAD_REACTORS
330
E77
102
}
330
E77
100
AcDbXrecord
280
     1
102
RTVSPropertyOp0
 70
     0
102
RTVSPropertyOp1
 70
     0
102
RTVSPropertyOp2
 70
     0
102
RTVSPropertyOp3
 70
     0
102
RTVSPropertyOp4
 70
     0
102
RTVSPropertyOp5
 70
     0
102
RTVSPropertyOp6
 70
     0
102
RTVSPropertyOp7
 70
     0
102
RTVSPropertyOp8
 70
     0
102
RTVSPropertyOp9
 70
     0
102
RTVSPropertyOp10
 70
     0
102
RTVSPropertyOp11
 70
     0
102
RTVSPropertyOp12
 70
     0
102
RTVSPropertyOp13
 70
     0
102
RTVSPropertyOp14
 70
     2
102
RTVSPropertyOp15
 70
     0
102
RTVSPropertyOp16
 70
     0
102
RTVSPropertyOp17
 70
     0
102
RTVSPropertyOp18
 70
     0
102
RTVSPropertyOp19
 70
     0
102
RTVSPropertyOp20
 70
     0
102
RTVSPropertyOp21
 70
     0
102
RTVSPropertyOp22
 70
     0
102
RTVSPropertyOp23
 70
     0
102
RTVSPropertyOp24
 70
     0
102
RTVSPropertyOp25
 70
     0
102
RTVSPropertyOp26
 70
     0
102
RTVSPropertyOp27
 70
     0
102
RTVSPropertyOp28
 70
     0
102
RTVSPropertyOp29
 70
     0
102
RTVSPropertyOp30
 70
     0
102
RTVSPropertyOp31
 70
     0
102
RTVSPropertyOp32
 70
     0
  0
XRECORD
  5
E5E
102
{ACAD_REACTORS
330
E5D
102
}
330
E5D
100
AcDbXrecord
280
     1
102
RTVSPropertyOp0
 70
     1
102
RTVSPropertyOp1
 70
     1
102
RTVSPropertyOp2
 70
     1
102
RTVSPropertyOp3
 70
     1
102
RTVSPropertyOp4
 70
     1
102
RTVSPropertyOp5
 70
     1
102
RTVSPropertyOp6
 70
     1
102
RTVSPropertyOp7
 70
     1
102
RTVSPropertyOp8
 70
     1
102
RTVSPropertyOp9
 70
     1
102
RTVSPropertyOp10
 70
     1
102
RTVSPropertyOp11
 70
     1
102
RTVSPropertyOp12
 70
     1
102
RTVSPropertyOp13
 70
     1
102
RTVSPropertyOp14
 70
     1
102
RTVSPropertyOp15
 70
     1
102
RTVSPropertyOp16
 70
     1
102
RTVSPropertyOp17
 70
     1
102
RTVSPropertyOp18
 70
     1
102
RTVSPropertyOp19
 70
     1
102
RTVSPropertyOp20
 70
     1
102
RTVSPropertyOp21
 70
     1
102
RTVSPropertyOp22
 70
     1
102
RTVSPropertyOp23
 70
     1
102
RTVSPropertyOp24
 70
     1
102
RTVSPropertyOp25
 70
     1
102
RTVSPropertyOp26
 70
     1
102
RTVSPropertyOp27
 70
     1
102
RTVSPropertyOp28
 70
     1
102
RTVSPropertyOp29
 70
     1
102
RTVSPropertyOp30
 70
     1
102
RTVSPropertyOp31
 70
     1
102
RTVSPropertyOp32
 70
     1
  0
XRECORD
  5
E74
102
{ACAD_REACTORS
330
E73
102
}
330
E73
100
AcDbXrecord
280
     1
102
RTVSPropertyOp0
 70
     1
102
RTVSPropertyOp1
 70
     1
102
RTVSPropertyOp2
 70
     1
102
RTVSPropertyOp3
 70
     1
102
RTVSPropertyOp4
 70
     1
102
RTVSPropertyOp5
 70
     1
102
RTVSPropertyOp6
 70
     1
102
RTVSPropertyOp7
 70
     1
102
RTVSPropertyOp8
 70
     1
102
RTVSPropertyOp9
 70
     1
102
RTVSPropertyOp10
 70
     1
102
RTVSPropertyOp11
 70
     1
102
RTVSPropertyOp12
 70
     1
102
RTVSPropertyOp13
 70
     1
102
RTVSPropertyOp14
 70
     1
102
RTVSPropertyOp15
 70
     1
102
RTVSPropertyOp16
 70
     1
102
RTVSPropertyOp17
 70
     1
102
RTVSPropertyOp18
 70
     1
102
RTVSPropertyOp19
 70
     1
102
RTVSPropertyOp20
 70
     1
102
RTVSPropertyOp21
 70
     1
102
RTVSPropertyOp22
 70
     1
102
RTVSPropertyOp23
 70
     1
102
RTVSPropertyOp24
 70
     1
102
RTVSPropertyOp25
 70
     1
102
RTVSPropertyOp26
 70
     1
102
RTVSPropertyOp27
 70
     1
102
RTVSPropertyOp28
 70
     1
102
RTVSPropertyOp29
 70
     1
102
RTVSPropertyOp30
 70
     1
102
RTVSPropertyOp31
 70
     1
102
RTVSPropertyOp32
 70
     1
  0
XRECORD
  5
E72
102
{ACAD_REACTORS
330
E71
102
}
330
E71
100
AcDbXrecord
280
     1
102
RTVSPropertyOp0
 70
     1
102
RTVSPropertyOp1
 70
     1
102
RTVSPropertyOp2
 70
     1
102
RTVSPropertyOp3
 70
     1
102
RTVSPropertyOp4
 70
     1
102
RTVSPropertyOp5
 70
     1
102
RTVSPropertyOp6
 70
     1
102
RTVSPropertyOp7
 70
     1
102
RTVSPropertyOp8
 70
     1
102
RTVSPropertyOp9
 70
     1
102
RTVSPropertyOp10
 70
     1
102
RTVSPropertyOp11
 70
     1
102
RTVSPropertyOp12
 70
     1
102
RTVSPropertyOp13
 70
     1
102
RTVSPropertyOp14
 70
     1
102
RTVSPropertyOp15
 70
     1
102
RTVSPropertyOp16
 70
     1
102
RTVSPropertyOp17
 70
     1
102
RTVSPropertyOp18
 70
     1
102
RTVSPropertyOp19
 70
     1
102
RTVSPropertyOp20
 70
     1
102
RTVSPropertyOp21
 70
     1
102
RTVSPropertyOp22
 70
     1
102
RTVSPropertyOp23
 70
     1
102
RTVSPropertyOp24
 70
     1
102
RTVSPropertyOp25
 70
     1
102
RTVSPropertyOp26
 70
     1
102
RTVSPropertyOp27
 70
     1
102
RTVSPropertyOp28
 70
     1
102
RTVSPropertyOp29
 70
     1
102
RTVSPropertyOp30
 70
     1
102
RTVSPropertyOp31
 70
     1
102
RTVSPropertyOp32
 70
     1
  0
XRECORD
  5
E6C
102
{ACAD_REACTORS
330
E6B
102
}
330
E6B
100
AcDbXrecord
280
     1
102
RTVSPropertyOp0
 70
     1
102
RTVSPropertyOp1
 70
     1
102
RTVSPropertyOp2
 70
     1
102
RTVSPropertyOp3
 70
     1
102
RTVSPropertyOp4
 70
     1
102
RTVSPropertyOp5
 70
     1
102
RTVSPropertyOp6
 70
     1
102
RTVSPropertyOp7
 70
     1
102
RTVSPropertyOp8
 70
     1
102
RTVSPropertyOp9
 70
     1
102
RTVSPropertyOp10
 70
     1
102
RTVSPropertyOp11
 70
     1
102
RTVSPropertyOp12
 70
     1
102
RTVSPropertyOp13
 70
     1
102
RTVSPropertyOp14
 70
     1
102
RTVSPropertyOp15
 70
     1
102
RTVSPropertyOp16
 70
     1
102
RTVSPropertyOp17
 70
     1
102
RTVSPropertyOp18
 70
     1
102
RTVSPropertyOp19
 70
     1
102
RTVSPropertyOp20
 70
     1
102
RTVSPropertyOp21
 70
     1
102
RTVSPropertyOp22
 70
     1
102
RTVSPropertyOp23
 70
     1
102
RTVSPropertyOp24
 70
     1
102
RTVSPropertyOp25
 70
     1
102
RTVSPropertyOp26
 70
     1
102
RTVSPropertyOp27
 70
     1
102
RTVSPropertyOp28
 70
     1
102
RTVSPropertyOp29
 70
     1
102
RTVSPropertyOp30
 70
     1
102
RTVSPropertyOp31
 70
     1
102
RTVSPropertyOp32
 70
     1
  0
XRECORD
  5
E6E
102
{ACAD_REACTORS
330
E6D
102
}
330
E6D
100
AcDbXrecord
280
     1
102
RTVSPropertyOp0
 70
     1
102
RTVSPropertyOp1
 70
     1
102
RTVSPropertyOp2
 70
     1
102
RTVSPropertyOp3
 70
     1
102
RTVSPropertyOp4
 70
     1
102
RTVSPropertyOp5
 70
     1
102
RTVSPropertyOp6
 70
     1
102
RTVSPropertyOp7
 70
     1
102
RTVSPropertyOp8
 70
     1
102
RTVSPropertyOp9
 70
     1
102
RTVSPropertyOp10
 70
     1
102
RTVSPropertyOp11
 70
     1
102
RTVSPropertyOp12
 70
     1
102
RTVSPropertyOp13
 70
     1
102
RTVSPropertyOp14
 70
     1
102
RTVSPropertyOp15
 70
     1
102
RTVSPropertyOp16
 70
     1
102
RTVSPropertyOp17
 70
     1
102
RTVSPropertyOp18
 70
     1
102
RTVSPropertyOp19
 70
     1
102
RTVSPropertyOp20
 70
     1
102
RTVSPropertyOp21
 70
     1
102
RTVSPropertyOp22
 70
     1
102
RTVSPropertyOp23
 70
     1
102
RTVSPropertyOp24
 70
     1
102
RTVSPropertyOp25
 70
     1
102
RTVSPropertyOp26
 70
     1
102
RTVSPropertyOp27
 70
     1
102
RTVSPropertyOp28
 70
     1
102
RTVSPropertyOp29
 70
     1
102
RTVSPropertyOp30
 70
     1
102
RTVSPropertyOp31
 70
     1
102
RTVSPropertyOp32
 70
     1
  0
XRECORD
  5
E64
102
{ACAD_REACTORS
330
E63
102
}
330
E63
100
AcDbXrecord
280
     1
102
RTVSPropertyOp0
 70
     1
102
RTVSPropertyOp1
 70
     1
102
RTVSPropertyOp2
 70
     1
102
RTVSPropertyOp3
 70
     1
102
RTVSPropertyOp4
 70
     1
102
RTVSPropertyOp5
 70
     1
102
RTVSPropertyOp6
 70
     1
102
RTVSPropertyOp7
 70
     1
102
RTVSPropertyOp8
 70
     1
102
RTVSPropertyOp9
 70
     1
102
RTVSPropertyOp10
 70
     1
102
RTVSPropertyOp11
 70
     1
102
RTVSPropertyOp12
 70
     1
102
RTVSPropertyOp13
 70
     1
102
RTVSPropertyOp14
 70
     1
102
RTVSPropertyOp15
 70
     1
102
RTVSPropertyOp16
 70
     1
102
RTVSPropertyOp17
 70
     1
102
RTVSPropertyOp18
 70
     1
102
RTVSPropertyOp19
 70
     1
102
RTVSPropertyOp20
 70
     1
102
RTVSPropertyOp21
 70
     1
102
RTVSPropertyOp22
 70
     1
102
RTVSPropertyOp23
 70
     1
102
RTVSPropertyOp24
 70
     1
102
RTVSPropertyOp25
 70
     1
102
RTVSPropertyOp26
 70
     1
102
RTVSPropertyOp27
 70
     1
102
RTVSPropertyOp28
 70
     1
102
RTVSPropertyOp29
 70
     1
102
RTVSPropertyOp30
 70
     1
102
RTVSPropertyOp31
 70
     1
102
RTVSPropertyOp32
 70
     1
  0
XRECORD
  5
E58
102
{ACAD_REACTORS
330
E57
102
}
330
E57
100
AcDbXrecord
280
     1
102
RTVSPropertyOp0
 70
     1
102
RTVSPropertyOp1
 70
     1
102
RTVSPropertyOp2
 70
     1
102
RTVSPropertyOp3
 70
     1
102
RTVSPropertyOp4
 70
     1
102
RTVSPropertyOp5
 70
     1
102
RTVSPropertyOp6
 70
     1
102
RTVSPropertyOp7
 70
     1
102
RTVSPropertyOp8
 70
     1
102
RTVSPropertyOp9
 70
     1
102
RTVSPropertyOp10
 70
     1
102
RTVSPropertyOp11
 70
     1
102
RTVSPropertyOp12
 70
     1
102
RTVSPropertyOp13
 70
     1
102
RTVSPropertyOp14
 70
     1
102
RTVSPropertyOp15
 70
     1
102
RTVSPropertyOp16
 70
     1
102
RTVSPropertyOp17
 70
     1
102
RTVSPropertyOp18
 70
     1
102
RTVSPropertyOp19
 70
     1
102
RTVSPropertyOp20
 70
     1
102
RTVSPropertyOp21
 70
     1
102
RTVSPropertyOp22
 70
     1
102
RTVSPropertyOp23
 70
     1
102
RTVSPropertyOp24
 70
     1
102
RTVSPropertyOp25
 70
     1
102
RTVSPropertyOp26
 70
     1
102
RTVSPropertyOp27
 70
     1
102
RTVSPropertyOp28
 70
     1
102
RTVSPropertyOp29
 70
     1
102
RTVSPropertyOp30
 70
     1
102
RTVSPropertyOp31
 70
     1
102
RTVSPropertyOp32
 70
     1
  0
XRECORD
  5
E70
102
{ACAD_REACTORS
330
E6F
102
}
330
E6F
100
AcDbXrecord
280
     1
102
RTVSPropertyOp0
 70
     1
102
RTVSPropertyOp1
 70
     1
102
RTVSPropertyOp2
 70
     1
102
RTVSPropertyOp3
 70
     1
102
RTVSPropertyOp4
 70
     1
102
RTVSPropertyOp5
 70
     1
102
RTVSPropertyOp6
 70
     1
102
RTVSPropertyOp7
 70
     1
102
RTVSPropertyOp8
 70
     1
102
RTVSPropertyOp9
 70
     1
102
RTVSPropertyOp10
 70
     1
102
RTVSPropertyOp11
 70
     1
102
RTVSPropertyOp12
 70
     1
102
RTVSPropertyOp13
 70
     1
102
RTVSPropertyOp14
 70
     1
102
RTVSPropertyOp15
 70
     1
102
RTVSPropertyOp16
 70
     1
102
RTVSPropertyOp17
 70
     1
102
RTVSPropertyOp18
 70
     1
102
RTVSPropertyOp19
 70
     1
102
RTVSPropertyOp20
 70
     1
102
RTVSPropertyOp21
 70
     1
102
RTVSPropertyOp22
 70
     1
102
RTVSPropertyOp23
 70
     1
102
RTVSPropertyOp24
 70
     1
102
RTVSPropertyOp25
 70
     1
102
RTVSPropertyOp26
 70
     1
102
RTVSPropertyOp27
 70
     1
102
RTVSPropertyOp28
 70
     1
102
RTVSPropertyOp29
 70
     1
102
RTVSPropertyOp30
 70
     1
102
RTVSPropertyOp31
 70
     1
102
RTVSPropertyOp32
 70
     1
  0
ENDSEC
  0
EOF
